<?xml version="1.0" standalone="no"?>
<!DOCTYPE svg PUBLIC "-//W3C//DTD SVG 1.1//EN" "http://www.w3.org/Graphics/SVG/1.1/DTD/svg11.dtd" >
<svg xmlns="http://www.w3.org/2000/svg">
<defs>
  <font id="symbols_89C3" horiz-adv-x="512">
    <font-face font-family="symbols_89C3"
      units-per-em="512" ascent="448"
      descent="64"
      font-weight="normal"
      font-style="normal" />
    <missing-glyph horiz-adv-x="0" />
    <glyph glyph-name="add"
      unicode="&#xEA01;"
      horiz-adv-x="512" d="M256 416C379.52 416 480 315.52 480 192C480 68.48 379.52 -32 256 -32C132.48 -32 32 68.48 32 192C32 315.52 132.48 416 256 416zM256 384C150.128 384 64 297.872 64 192C64 86.128 150.128 0 256 0C361.872 0 448 86.128 448 192C448 297.872 361.872 384 256 384zM256 344C264.848 344 272 336.848 272 328L272 208L392 208C400.848 208 408 200.848 408 192C408 183.152 400.848 176 392 176L272 176L272 56C272 47.152 264.848 40 256 40C247.152 40 240 47.152 240 56L240 176L120 176C111.152 176 104 183.152 104 192C104 200.848 111.152 208 120 208L240 208L240 328C240 336.848 247.152 344 256 344z" />
    <glyph glyph-name="browser"
      unicode="&#xEA03;"
      horiz-adv-x="512" d="M323.584 12.5152C333.2 26.8832 341.616 44.1792 348.416 64.0032L398.704 64.0032C378.32 41.2832 352.64 23.5072 323.584 12.5152L323.584 12.5152zM113.296 64.0032L163.6 64.0032C170.4 44.1792 178.816 26.8832 188.432 12.5152C159.36 23.5072 133.696 41.2832 113.296 64.0032L113.296 64.0032zM188.432 371.4912C178.816 357.1232 170.4 339.8272 163.6 320.0032L113.296 320.0032C133.696 342.7232 159.36 360.5152 188.432 371.4912L188.432 371.4912zM398.704 320.0032L348.416 320.0032C341.616 339.8272 333.2 357.1232 323.584 371.4912C352.64 360.5152 378.32 342.7232 398.704 320.0032L398.704 320.0032zM367.616 208.0032C366.64 236.6112 363.12 263.5392 357.44 288.0032L422.032 288.0032C435.92 264.0832000000001 444.784 236.9792 447.2 208.0032L367.616 208.0032zM367.616 176.0032L447.2 176.0032C444.784 147.0272 435.92 119.9072 422.032 96.0032L357.44 96.0032C363.12 120.4512 366.64 147.3792 367.616 176.0032L367.616 176.0032zM144.4 208.0032L64.816 208.0032C67.232 236.9792 76.096 264.0832000000001 89.984 288.0032L154.576 288.0032C148.912 263.5392 145.36 236.6112 144.4 208.0032L144.4 208.0032zM324.704 288.0032C330.656 264.5792 334.576 237.6032 335.632 208.0032L176.384 208.0032C177.44 237.6032 181.344 264.5792 187.296 288.0032L324.704 288.0032zM256 384.0032C276.784 384.0032 298.8 360.1472 314.496 320.0032L197.52 320.0032C213.216 360.1472 235.232 384.0032 256 384.0032L256 384.0032zM64.816 176.0032L144.4 176.0032C145.36 147.3792 148.912 120.4512 154.576 96.0032L89.984 96.0032C76.096 119.9072 67.232 147.0272 64.816 176.0032L64.816 176.0032zM187.296 96.0032C181.344 119.4272 177.44 146.4032 176.384 176.0032L335.632 176.0032C334.576 146.4032 330.656 119.4272 324.704 96.0032L187.296 96.0032zM256 0.0032C235.232 0.0032 213.216 23.8592 197.52 64.0032L314.496 64.0032C298.8 23.8592 276.784 0.0032 256 0.0032L256 0.0032zM256 416.0032C132.496 416.0032 32 315.5072 32 192.0032C32 68.4832 132.496 -31.9968 256 -31.9968C379.52 -31.9968 480 68.4832 480 192.0032C480 315.5072 379.52 416.0032 256 416.0032L256 416.0032z" />
    <glyph glyph-name="calendar"
      unicode="&#xEA05;"
      horiz-adv-x="512" d="M416 224L416 32L96 32L96 224L416 224zM160 320L160 304C160 295.152 167.152 288 176 288C184.848 288 192 295.152 192 304L192 320L320 320L320 304C320 295.152 327.152 288 336 288C344.848 288 352 295.152 352 304L352 320L416 320L416 256L96 256L96 320L160 320zM352 352L352 368C352 376.848 344.848 384 336 384C327.152 384 320 376.848 320 368L320 352L192 352L192 368C192 376.848 184.848 384 176 384C167.152 384 160 376.848 160 368L160 352L80 352C71.152 352 64 344.848 64 336L64 16C64 7.152 71.152 0 80 0L432 0C440.848 0 448 7.152 448 16L448 336C448 344.848 440.848 352 432 352L352 352z" />
    <glyph glyph-name="card"
      unicode="&#xEA07;"
      horiz-adv-x="512" d="M480 96C480 60.653776 451.346224 32 416 32L96 32C60.653776 32 32 60.653776 32 96L32 288C32 323.346224 60.653776 352 96 352L416 352C451.346224 352 480 323.346224 480 288L480 96zM448 208L64 208L64 96C64 79.130211 77.0540446 65.309358 93.6118025 64.087772L96 64L416 64C432.8697890000001 64 446.6906420000001 77.054045 447.9122280000001 93.611802L448 96L448 208zM416 320L96 320C79.1302113 320 65.3093581 306.9459554 64.0877718 290.3881975L64 288L64 240L448 240L448 288C448 304.8697887 434.9459550000001 318.6906419 418.388198 319.9122282L416 320z" />
    <glyph glyph-name="call"
      unicode="&#xEA06;"
      horiz-adv-x="512" d="M128 336C119.168 336 112 328.832 112 320C112 170.016 234.016 48 384 48C392.832 48 400 55.168 400 64L400 128.56C372.992 130.448 346.912 137.2 322.208 148.672L282.192 115.664C276.848 111.264 269.312 110.832 263.472 114.448C226.224 137.92 201.6 162.56 178.432 199.504C174.784 205.344 175.28 212.864 179.664 218.192L212.672 258.208C201.2 282.9120000000001 194.448 308.992 192.56 336L128 336zM384 16C216.368 16 80 152.368 80 320C80 346.464 101.536 368 128 368L208 368C216.848 368 224 360.848 224 352C224 320.896 231.328 291.072 245.776 263.408C248.752 257.6960000000001 248.032 250.784 243.936 245.808L211.824 206.896C228.384 182.608 246.416 164.592 270.9120000000001 147.84L309.808 179.936C314.784 184.064 321.664 184.768 327.408 181.776C355.072 167.328 384.896 160 416 160C424.848 160 432 152.848 432 144L432 64C432 37.536 410.464 16 384 16L384 16z" />
    <glyph glyph-name="calendar-ok"
      unicode="&#xEA04;"
      horiz-adv-x="512" d="M336 384C344.848 384 352 376.848 352 368L352 352L432 352C440.848 352 448 344.848 448 336L448 16C448 7.152 440.848 0 432 0L80 0C71.152 0 64 7.152 64 16L64 336C64 344.848 71.152 352 80 352L160 352L160 368C160 376.848 167.152 384 176 384C184.848 384 192 376.848 192 368L192 352L320 352L320 368C320 376.848 327.152 384 336 384zM416 224L96 224L96 32L416 32L416 224zM324.688 187.312C330.944 193.568 341.056 193.568 347.312 187.312C353.568 181.0560000000001 353.568 170.944 347.312 164.688L251.312 68.688C248.192 65.568 244.096 64 240 64C235.904 64 231.808 65.568 228.688 68.688L164.688 132.688C158.432 138.944 158.432 149.0560000000001 164.688 155.312C170.944 161.568 181.056 161.568 187.312 155.312L240 102.624zM160 320L96 320L96 256L416 256L416 320L352 320L352 304C352 295.152 344.848 288 336 288C327.152 288 320 295.152 320 304L320 320L192 320L192 304C192 295.152 184.848 288 176 288C167.152 288 160 295.152 160 304L160 320z" />
    <glyph glyph-name="check-circle"
      unicode="&#xEA08;"
      horiz-adv-x="512" d="M256 416C379.52 416 480 315.52 480 192C480 68.48 379.52 -32 256 -32C132.48 -32 32 68.48 32 192C32 315.52 132.48 416 256 416zM256 384C150.128 384 64 297.872 64 192C64 86.128 150.128 0 256 0C361.872 0 448 86.128 448 192C448 297.872 361.872 384 256 384zM379.312 275.312C385.568 269.0560000000001 385.568 258.944 379.312 252.688L235.312 108.688C232.192 105.568 228.096 104 224 104C219.904 104 215.808 105.568 212.688 108.688L132.688 188.688C126.432 194.944 126.432 205.056 132.688 211.312C138.944 217.568 149.056 217.568 155.312 211.312L224 142.624L356.688 275.312C362.944 281.568 373.056 281.568 379.312 275.312z" />
    <glyph glyph-name="check"
      unicode="&#xEA09;"
      horiz-adv-x="512" d="M208 64C203.904 64 199.8080000000001 65.568 196.6880000000001 68.688L68.688 196.688C62.432 202.944 62.432 213.056 68.688 219.312C74.944 225.568 85.056 225.568 91.312 219.312L208 102.624L420.688 315.312C426.944 321.568 437.056 321.568 443.312 315.312C449.568 309.0560000000001 449.568 298.944 443.312 292.688L219.312 68.688C216.192 65.568 212.096 64 208 64" />
    <glyph glyph-name="checkbox-off"
      unicode="&#xEA0A;"
      horiz-adv-x="512" d="M96 32L416 32L416 352L96 352L96 32zM432 0L80 0C71.152 0 64 7.152 64 16L64 368C64 376.848 71.152 384 80 384L432 384C440.848 384 448 376.848 448 368L448 16C448 7.152 440.848 0 432 0L432 0z" />
    <glyph glyph-name="checkbox-on"
      unicode="&#xEA0B;"
      horiz-adv-x="512" d="M432 384C440.848 384 448 376.848 448 368L448 16C448 7.152 440.848 0 432 0L80 0C71.152 0 64 7.152 64 16L64 368C64 376.848 71.152 384 80 384L432 384zM379.312 283.312C373.537231 289.0867692 364.476876 289.5309822 358.196632 284.6446391L356.688 283.312L224 150.624L155.312 219.312C149.056 225.568 138.944 225.568 132.688 219.312C126.9132308 213.537231 126.4690178 204.476876 131.3553609 198.196632L132.688 196.688L212.688 116.688C215.808 113.568 219.904 112 224 112C227.413333 112 230.826667 113.088889 233.675185 115.257407L235.312 116.688L379.312 260.688C385.568 266.944 385.568 277.056 379.312 283.312z" />
    <glyph glyph-name="close"
      unicode="&#xEA0C;"
      horiz-adv-x="512" d="M278.624 192L411.312 324.688C417.5680000000001 330.944 417.5680000000001 341.0560000000001 411.312 347.312C405.056 353.568 394.944 353.568 388.6880000000001 347.312L256 214.624L123.312 347.312C117.056 353.568 106.944 353.568 100.688 347.312C94.432 341.0560000000001 94.432 330.944 100.688 324.688L233.376 192L100.688 59.312C94.432 53.056 94.432 42.944 100.688 36.688C103.808 33.568 107.904 32 112 32C116.096 32 120.192 33.568 123.312 36.688L256 169.376L388.6880000000001 36.688C391.8080000000001 33.568 395.9040000000001 32 400.0000000000001 32C404.0960000000001 32 408.1920000000001 33.568 411.312 36.688C417.5680000000001 42.944 417.5680000000001 53.056 411.312 59.312L278.624 192z" />
    <glyph glyph-name="cloud"
      unicode="&#xEA0D;"
      horiz-adv-x="512" d="M152 240C103.472 240 64 200.528 64 152C64 103.472 103.472 64 152 64L384 64C419.296 64 448 92.704 448 128C448 160.944 422.112 188.784 389.056 191.408L371.984 192.768L374.496 209.696C375.28 214.96 376 219.392 376 224C376 276.944 332.944 320 280 320C237.36 320 199.52 291.056 187.968 249.632L183.984 235.296L169.392 238.24C163.76 239.376 157.968 240 152 240M384 32L152 32C85.824 32 32 85.824 32 152C32 221.392 91.984 277.184 161.68 271.6C180.96 319.568 227.76 352 280 352C350.576 352 408 294.576 408 224C408 222.848 407.968 221.696 407.92 220.576C449.44 209.824 480 171.92 480 128C480 75.056 436.944 32 384 32" />
    <glyph glyph-name="download-cloud"
      unicode="&#xEA0E;"
      horiz-adv-x="512" d="M255.9824 256C264.8304 256 271.9824000000001 248.848 271.9824000000001 240L271.9824000000001 22.624L308.6704 59.312C314.9264 65.568 325.0384 65.568 331.2944 59.312C337.5504 53.056 337.5504 42.944 331.2944 36.688L267.2944 -27.312C264.1744 -30.432 260.0784 -32 255.9824 -32C251.8864 -32 247.7904 -30.432 244.6704 -27.312L180.6864 36.672C174.4304 42.928 174.4304 53.04 180.6864 59.296C186.9424 65.552 197.0544 65.552 203.3104 59.296L239.9824 22.624L239.9824 240C239.9824 248.848 247.1344 256 255.9824 256zM280 416.0016C350.576 416.0016 408 358.5776 408 288.0016C408 286.8496 407.968 285.6976 407.92 284.5776C449.44 273.8256 480 235.9216 480 192.0016C480 139.0576 436.928 96.0016 384 96.0016L336 96.0016C327.152 96.0016 320 103.1536 320 112.0016C320 120.8496 327.152 128.0016 336 128.0016L384 128.0016C419.28 128.0016 448 156.7056 448 192.0016C448 224.9296 422.128 252.7856 389.056 255.4096L371.984 256.7696L374.496 273.6976C375.28 278.9456 376 283.3936 376 288.0016C376 340.9296 332.928 384.0016 280 384.0016C237.36 384.0016 199.52 355.0576 187.968 313.6176000000001L183.984 299.2976L169.392 302.2416C163.76 303.3776000000001 157.968 304.0016 152 304.0016C103.472 304.0016 64 264.5296 64 216.0016C64 167.4736 103.472 128.0016 152 128.0016L176 128.0016C184.848 128.0016 192 120.8496 192 112.0016C192 103.1536 184.848 96.0016 176 96.0016L152 96.0016C85.824 96.0016 32 149.8256 32 216.0016C32 285.3936 92 341.1856 161.68 335.5856C180.944 383.5696 227.76 416.0016 280 416.0016z" />
    <glyph glyph-name="edit"
      unicode="&#xEA10;"
      horiz-adv-x="512" d="M367.9972655000177 230.6256L294.6212655000176 304.0016L335.9972655000177 345.3776000000001L409.3732655000176 272.0016L367.9972655000177 230.6256zM184.4452655000176 47.0736L98.8612658000176 34.8656L111.0692658000176 120.4496L271.9972655000177 281.3776000000001L345.3732655000176 208.0016L184.4452655000176 47.0736zM443.3092655000177 283.3136L347.3092655000177 379.3136C341.0532655000176 385.5696 330.9412655000176 385.5696 324.6852655000177 379.3136L84.6852658000176 139.3136C82.2372658000176 136.8656 80.6532658000176 133.6816 80.1572658000176 130.2736L64.1572658260176 18.2576C63.4532658260176 13.2816 65.1172658300176 8.2576 68.6852658300176 4.6896C71.6932658300176 1.6496 75.7732658000176 0.0016 79.9972658000176 0.0016C80.7492658000176 0.0016 81.5012658000176 0.0656 82.2692658000176 0.1616L194.2692655000177 16.1616C197.6772655000176 16.6576 200.8612655000176 18.2576 203.3092655000176 20.6896L443.3092655000177 260.6896C449.5652655000177 266.9456 449.5652655000177 277.0576 443.3092655000177 283.3136L443.3092655000177 283.3136z" />
    <glyph glyph-name="download"
      unicode="&#xEA0F;"
      horiz-adv-x="512" d="M432 128C440.848 128 448 120.848 448 112L448 16C448 7.152 440.848 0 432 0L80 0C71.152 0 64 7.152 64 16L64 112C64 120.848 71.152 128 80 128C88.848 128 96 120.848 96 112L96 32L416 32L416 112C416 120.848 423.152 128 432 128zM256 384C264.848 384 272 376.848 272 368L272 150.624L372.688 251.312C378.944 257.568 389.056 257.568 395.312 251.312C401.568 245.056 401.568 234.944 395.312 228.688L267.312 100.688C264.192 97.568 260.096 96 256 96C251.904 96 247.808 97.568 244.688 100.688L116.688 228.688C110.432 234.944 110.432 245.056 116.688 251.312C122.944 257.568 133.056 257.568 139.312 251.312L240 150.624L240 368C240 376.848 247.152 384 256 384z" />
    <glyph glyph-name="email"
      unicode="&#xEA11;"
      horiz-adv-x="512" d="M96 31.9936L96 226.8416000000001L247.408 130.4896C250.032 128.8256 253.008 127.9936 256 127.9936C258.992 127.9936 261.968 128.8256 264.592 130.4896L416 226.8416000000001L416 31.9936L96 31.9936zM256 349.0176L402.192 255.9936L256 162.9696L109.808 255.9936L256 349.0176zM447.728 257.0016C447.632 258.8096 447.136 260.5376 446.4 262.2496C446.144 262.8416 446.048 263.4656 445.712 264.0256C445.616 264.2016 445.616 264.4096 445.504 264.5856C444.256 266.5536 442.608 268.0896 440.784 269.2896C440.704 269.3376 440.6720000000001 269.4336 440.592 269.4976000000001L264.592 381.4976000000001C259.344 384.8416 252.656 384.8416 247.408 381.4976000000001L71.408 269.4976000000001C71.328 269.4336 71.296 269.3216 71.2 269.2736C69.376 268.0736 67.744 266.5376 66.496 264.5856C66.384 264.4096 66.384 264.2016 66.288 264.0096C65.968 263.4816 65.872 262.8736 65.616 262.2976C64.864 260.5536 64.368 258.8256 64.256 257.0016C64.24 256.6496 64 256.3456 64 255.9936L64 15.9936C64 7.1456 71.152 -0.0064 80 -0.0064L432 -0.0064C440.848 -0.0064 448 7.1456 448 15.9936L448 255.9936C448 256.3456 447.76 256.6496 447.728 257.0016L447.728 257.0016z" />
    <glyph glyph-name="erase"
      unicode="&#xEA12;"
      horiz-adv-x="512" d="M256 416C379.52 416 480 315.52 480 192C480 68.48 379.52 -32 256 -32C132.48 -32 32 68.48 32 192C32 315.52 132.48 416 256 416zM256 384C150.128 384 64 297.872 64 192C64 86.128 150.128 0 256 0C361.872 0 448 86.128 448 192C448 297.872 361.872 384 256 384zM340.6896 299.312C346.9456 305.568 357.0576 305.568 363.3136 299.312C369.5696 293.056 369.5696 282.944 363.3136 276.688L278.6256 192L363.3136 107.312C369.5696 101.056 369.5696 90.944 363.3136 84.688C360.1936 81.568 356.0976 80 352.0016 80C347.9056 80 343.8096 81.568 340.6896 84.688L256.0016 169.376L171.3136 84.688C168.1936 81.568 164.0976 80 160.0016 80C155.9056 80 151.8096 81.568 148.6896 84.688C142.4336 90.944 142.4336 101.056 148.6896 107.312L233.3776 192L148.6896 276.688C142.4336 282.944 142.4336 293.056 148.6896 299.312C154.9456 305.568 165.0576 305.568 171.3136 299.312L256.0016 214.624z" />
    <glyph glyph-name="folder"
      unicode="&#xEA14;"
      horiz-adv-x="512" d="M160 384C164.256 384 168.32 382.32 171.312 379.312L230.624 320L464 320C472.848 320 480 312.848 480 304L480 16C480 7.152 472.848 0 464 0L48 0C39.152 0 32 7.152 32 16L32 368C32 376.848 39.152 384 48 384L160 384zM153.376 352L64 352L64 32L448 32L448 288L224 288C219.744 288 215.68 289.68 212.688 292.688L153.376 352zM432 384C440.848 384 448 376.848 448 368C448 359.152 440.848 352 432 352L272 352C263.152 352 256 359.152 256 368C256 376.848 263.152 384 272 384L432 384z" />
    <glyph glyph-name="favoris"
      unicode="&#xEA13;"
      horiz-adv-x="512" d="M255.9999999760845 97.3904C258.5599999760846 97.3904 261.1199999760845 96.7824 263.4719999760845 95.5504L343.5519999760845 53.2944L328.2399999760845 142.8624C327.3439999760846 148.0464 329.0559999760846 153.3264 332.8159999760846 157.0064L397.6959999760845 220.4784L308.0799999760846 233.5664C302.8639999760846 234.3184 298.3519999760846 237.5984000000001 296.0319999760846 242.3344L255.9999999760845 323.7264L215.9679999760846 242.3344C213.6479999760846 237.5984000000001 209.1359999760846 234.3184 203.9199999760846 233.5664L114.3039999760845 220.4784L179.1839999760846 157.0064C182.9439999760846 153.3264 184.6559999760845 148.0464 183.7599999760845 142.8624L168.4479999760845 53.2944L248.5279999760846 95.5504C250.8799999760845 96.7824 253.4399999760845 97.3904 255.9999999760845 97.3904M364.7839999760846 7.9984C362.2239999760846 7.9984 359.6639999760846 8.6224 357.3119999760845 9.8384L255.9999999760845 63.4064L154.6879999760845 9.8384C149.2959999760845 7.0544 142.7519999760845 7.5024 137.8239999760845 11.0384C132.8959999760846 14.6384 130.4159999760845 20.7184 131.4559999760846 26.7184L150.8159999760845 140.2544L68.8160000260845 220.6384C64.4640000220845 224.8944 62.9120000260845 231.2784 64.7840000220845 237.0704C66.6720000260845 242.8624 71.6640000260845 247.0864000000001 77.6799999760845 247.9664L190.9759999760845 264.5264L241.6479999760846 367.7744C247.0079999760845 378.7344 264.9919999760846 378.7344 270.3519999760846 367.7744L321.0239999760845 264.5264L434.3199999760846 247.9664C440.3359999760845 247.0864000000001 445.3439999760846 242.8624 447.2159999760845 237.0704C449.0879999760846 231.2784 447.5359999760846 224.8944 443.1839999760846 220.6384L361.1839999760846 140.2544L380.5439999760846 26.7184C381.5839999760846 20.7184 379.1039999760846 14.6384 374.1759999760846 11.0384C371.3919999760846 9.0384 368.0959999760845 7.9984 364.7839999760846 7.9984" />
    <glyph glyph-name="help"
      unicode="&#xEA16;"
      horiz-adv-x="512" d="M256 416C379.52 416 480 315.52 480 192C480 68.48 379.52 -32 256 -32C132.48 -32 32 68.48 32 192C32 315.52 132.48 416 256 416zM256 384C150.128 384 64 297.872 64 192C64 86.128 150.128 0 256 0C361.872 0 448 86.128 448 192C448 297.872 361.872 384 256 384zM256 96C264.832 96 272 88.848 272 80C272 71.152 264.832 64 256 64C247.168 64 240 71.152 240 80C240 88.848 247.168 96 256 96zM256.0064 320C291.3024 320 320.0064 291.296 320.0064 256C320.0064 235.712 308.1824 221.568 299.3184 212.688C286.0864000000001 199.472 272.8064 181.472 271.9904 175.632L271.7344 143.872C271.6544 135.072 264.5184000000001 128 255.7344 128L255.6064 128C246.7584 128.08 239.6544 135.296 239.7344 144.128L240.0064 176.128C240.0064 196.992 268.0704 226.704 276.6944 235.312C284.6144 243.248 288.0064 249.44 288.0064 256C288.0064 273.648 273.6384 288 256.0064 288C238.3584 288 224.0064 273.648 224.0064 256C224.0064 247.152 216.8384 240 208.0064 240C199.1584 240 192.0064 247.152 192.0064 256C192.0064 291.296 220.7104 320 256.0064 320z" />
    <glyph glyph-name="geolocation-pin"
      unicode="&#xEA15;"
      horiz-adv-x="512" d="M256 416C361.872 416 448 329.872 448 224C448 107.008 283.152 -32 256 -32C228.848 -32 64 107.008 64 224C64 329.872 150.128 416 256 416zM256 384C167.776 384 96 312.224 96 224C96 128.432 227.584 16.048 256 0.976C284.416 16.048 416 128.432 416 224C416 312.224 344.224 384 256 384zM256 288C291.296 288 320 259.296 320 224C320 188.704 291.296 160 256 160C220.704 160 192 188.704 192 224C192 259.296 220.704 288 256 288zM256 256C238.352 256 224 241.648 224 224C224 206.352 238.352 192 256 192C273.648 192 288 206.352 288 224C288 241.648 273.648 256 256 256z" />
    <glyph glyph-name="phone"
      unicode="&#xEA19;"
      horiz-adv-x="512" d="M128 353L384 353L384 385L128 385L128 353zM128 97L384 97L384 321L128 321L128 97zM128 1L384 1L384 65L128 65L128 1zM400 417C408.216 417 414.969633 410.83322449 415.892519 402.8680525L416 401L416 -15C416 -23.216 409.833224 -29.969633 401.868052 -30.892519L400 -31L112 -31C103.784 -31 97.03036735 -24.833224 96.10748105 -16.868052L96 -15L96 401C96 409.216 102.16677551 415.96963265 110.1319475 416.89251895L112 417L400 417zM256 49C247.168 49 240 41.848 240 33C240 24.152 247.168 17 256 17C264.832 17 272 24.152 272 33C272 41.848 264.832 49 256 49z" />
    <glyph glyph-name="information"
      unicode="&#xEA17;"
      horiz-adv-x="512" d="M256 417C379.52 417 480 316.52 480 193C480 69.48 379.52 -31 256 -31C132.48 -31 32 69.48 32 193C32 316.52 132.48 417 256 417zM256 385C150.128 385 64 298.872 64 193C64 87.128 150.128 1 256 1C361.872 1 448 87.128 448 193C448 298.872 361.872 385 256 385zM256 256.688C264.848 256.688 272 249.536 272 240.688L272 80.688C272 71.84 264.848 64.688 256 64.688C247.152 64.688 240 71.84 240 80.688L240 240.688C240 249.536 247.152 256.688 256 256.688zM256 321C264.832 321 272 313.832 272 305C272 296.168 264.832 289 256 289C247.168 289 240 296.168 240 305C240 313.832 247.168 321 256 321z" />
    <glyph glyph-name="refresh"
      unicode="&#xEA1B;"
      horiz-adv-x="512" d="M464 384C455.152 384 448 376.848 448 368L448 306.176C407.648 374.032 335.44 416 256 416C132.48 416 32 315.52 32 192C32 68.48 132.48 -32 256 -32C332.576 -32 403.056 6.656 444.56 71.36C449.344 78.8 447.152 88.704 439.712 93.472C432.336 98.224 422.432 96.112 417.632 88.64C382.048 33.136 321.632 0 256 0C150.128 0 64 86.128 64 192C64 297.872 150.128 384 256 384C324.8 384 387.312 347.28 421.68 288L368 288C359.152 288 352 280.848 352 272C352 263.152 359.152 256 368 256L464 256C472.848 256 480 263.152 480 272L480 368C480 376.848 472.848 384 464 384" />
    <glyph glyph-name="profil"
      unicode="&#xEA1A;"
      horiz-adv-x="512" d="M159.9982127144167 256.0016C159.9982127144167 308.9456 203.0542127144167 352.0016 255.9982127144167 352.0016C308.9422127144167 352.0016 351.9982127144167 308.9456 351.9982127144167 256.0016C351.9982127144167 203.0576 308.9422127144167 160.0016 255.9982127144167 160.0016C203.0542127144167 160.0016 159.9982127144167 203.0576 159.9982127144167 256.0016M460.5582127144167 73.9056C431.6782127144167 110.5136 383.5022127144167 137.7456 328.8142127144167 150.9776C362.0782127144167 174.1136 383.9982127144167 212.4976 383.9982127144167 256.0016C383.9982127144167 326.5776 326.5742127144167 384.0016 255.9982127144167 384.0016C185.4222127144167 384.0016 127.9982132144167 326.5776 127.9982132144167 256.0016C127.9982132144167 212.4976 149.9182127144168 174.1136 183.1822127144167 150.9776C128.4942132144167 137.7456 80.3182132144167 110.5136 51.4382132144167 73.9056C31.8222132084167 49.0416 31.9822132084167 17.1536 31.9968543278767 15.8096C32.1102132084167 7.0256 39.2462132044167 0.0336 47.9982132144167 0.0336L48.1102132144167 0.0336C56.9262132144167 0.0976 64.0142132144167 7.3136 63.9982132144167 16.1296C63.9982132144167 16.3376 64.0942132144167 38.2896 76.5582132144167 54.0976C111.9662132144167 98.9936 182.3982127144167 128.0016 255.9982127144167 128.0016C329.5982127144167 128.0016 400.0302127144167 98.9936 435.4382127144167 54.0976C447.7742127144167 38.4336 447.9982127144167 16.7856 447.9982127144167 16.1296C447.9342127144167 7.3456 454.9742127144166 0.1296 463.8062127144167 0.0016L463.9982127144166 0.0016C472.7502127144167 0.0016 479.8702127144167 7.0256 480.0015057144167 15.8096C480.0302127144167 17.1536 480.1902127144166 49.0416 460.5582127144167 73.9056" />
    <glyph glyph-name="remove"
      unicode="&#xEA1C;"
      horiz-adv-x="512" d="M256 416C379.52 416 480 315.52 480 192C480 68.48 379.52 -32 256 -32C132.48 -32 32 68.48 32 192C32 315.52 132.48 416 256 416zM256 384C150.128 384 64 297.872 64 192C64 86.128 150.128 0 256 0C361.872 0 448 86.128 448 192C448 297.872 361.872 384 256 384zM368 208C376.848 208 384 200.848 384 192C384 183.152 376.848 176 368 176L144 176C135.152 176 128 183.152 128 192C128 200.848 135.152 208 144 208L368 208z" />
    <glyph glyph-name="secure"
      unicode="&#xEA1D;"
      horiz-adv-x="512" d="M256 416C308.944 416 352 372.944 352 320L352 256L432 256C440.848 256 448 248.848 448 240L448 -16C448 -24.848 440.848 -32 432 -32L80 -32C71.152 -32 64 -24.848 64 -16L64 240C64 248.848 71.152 256 80 256L160 256L160 320C160 372.944 203.056 416 256 416zM416 224L96 224L96 0L416 0L416 224zM256 176C273.664 176 288 161.664 288 144C288 132.288 281.392 122.48 272 116.912L272 64C272 55.152 264.848 48 256 48C247.152 48 240 55.152 240 64L240 116.912C230.608 122.48 224 132.288 224 144C224 161.664 238.336 176 256 176zM256 384C220.704 384 192 355.296 192 320L192 256L320 256L320 320C320 355.296 291.296 384 256 384z" />
    <glyph glyph-name="share"
      unicode="&#xEA1E;"
      horiz-adv-x="512" d="M384 0C379.904 0 376.08 0.88 372.528 2.32C370.32 3.168 368.496 4.576 366.544 5.872C365.568 6.576 364.464 7.088 363.568 7.888C361.008 10.064 359.008 12.64 357.248 15.504L357.104 15.68C354.1600000000001 20.528 352 25.904 352 32C352 45.824 360.88 57.344 373.152 61.808C376.512 63.168 380.128 64 384 64C401.664 64 416 49.664 416 32C416 14.336 401.664 0 384 0M128 160C123.856 160 119.968 160.88 116.384 162.336C113.92 163.312 111.872 164.912 109.728 166.432C108.928 167.024 108 167.424 107.264 168.096C100.496 173.968 96 182.336 96 192C96 201.664 100.496 210.032 107.264 215.904C108 216.576 108.928 216.96 109.712 217.568C111.856 219.088 113.904 220.688 116.4 221.664C119.984 223.12 123.856 224 128 224C145.664 224 160 209.664 160 192C160 174.336 145.664 160 128 160M357.12 368.336C357.152 368.368 357.1840000000001 368.416 357.216 368.464C359.008 371.344 361.008 373.9360000000001 363.584 376.112C364.448 376.896 365.52 377.376 366.464 378.064C368.432 379.392 370.304 380.8160000000001 372.544 381.68C376.096 383.12 379.904 384 384 384C401.664 384 416 369.664 416 352C416 334.336 401.664 320 384 320C380.128 320 376.512 320.832 373.136 322.192C360.88 326.6720000000001 352 338.176 352 352C352 358.096 354.1600000000001 363.472 357.12 368.336M384 96C364.784 96 347.728 87.312 335.984 73.872L186.08 165.488C189.792 173.584 192 182.512 192 192C192 201.488 189.792 210.416 186.08 218.512L335.984 310.128C347.728 296.6720000000001 364.784 288 384 288C419.28 288 448 316.704 448 352C448 387.296 419.28 416 384 416C348.704 416 320 387.296 320 352C320 347.44 320.512 343.008 321.424 338.736L165.616 243.52C155.024 251.28 142.096 256 128 256C92.704 256 64 227.296 64 192C64 156.704 92.704 128 128 128C142.096 128 155.024 132.72 165.616 140.48L321.424 45.264C320.512 40.992 320 36.544 320 32C320 -3.28 348.704 -32 384 -32C419.28 -32 448 -3.28 448 32C448 67.296 419.28 96 384 96" />
    <glyph glyph-name="trash"
      unicode="&#xEA1F;"
      horiz-adv-x="512" d="M336 416C344.848 416 352 408.848 352 400L352 352L432 352C440.848 352 448 344.848 448 336C448 327.152 440.848 320 432 320L416 320L416 -16C416 -24.848 408.848 -32 400 -32L112 -32C103.152 -32 96 -24.848 96 -16L96 320L80 320C71.152 320 64 327.152 64 336C64 344.848 71.152 352 80 352L160 352L160 400C160 408.848 167.152 416 176 416zM384 320L128 320L128 0L384 0L384 320zM176 224C184.848 224 192 216.848 192 208L192 48C192 39.152 184.848 32 176 32C167.152 32 160 39.152 160 48L160 208C160 216.848 167.152 224 176 224zM336 224C344.848 224 352 216.848 352 208L352 48C352 39.152 344.848 32 336 32C327.152 32 320 39.152 320 48L320 208C320 216.848 327.152 224 336 224zM256 224C264.848 224 272 216.848 272 208L272 48C272 39.152 264.848 32 256 32C247.152 32 240 39.152 240 48L240 208C240 216.848 247.152 224 256 224zM320 384L192 384L192 352L320 352L320 384z" />
    <glyph glyph-name="arrow-up"
      unicode="&#xEA22;"
      horiz-adv-x="512" d="M271.998 -16L271.998 361.376L356.686 276.688C362.942 270.432 373.0540000000001 270.432 379.31 276.688C385.566 282.944 385.566 293.056 379.31 299.312L267.31 411.312C261.0540000000001 417.568 250.9420000000001 417.568 244.6860000000001 411.312L132.686 299.312C129.566 296.192 127.998 292.096 127.998 288.0000000000001C127.998 283.9040000000001 129.566 279.8080000000001 132.686 276.6880000000001C138.942 270.432 149.054 270.432 155.31 276.6880000000001L239.998 361.3760000000001L239.998 -16C239.998 -24.848 247.15 -32 255.998 -32C264.846 -32 271.998 -24.848 271.998 -16" />
    <glyph glyph-name="arrow-down"
      unicode="&#xEA23;"
      horiz-adv-x="512" d="M240.002 400.004L240.002 22.628L155.314 107.316C149.058 113.572 138.946 113.572 132.69 107.316C126.434 101.06 126.434 90.948 132.69 84.692L244.69 -27.308C250.9460000000001 -33.564 261.058 -33.564 267.314 -27.308L379.314 84.692C382.434 87.812 384.002 91.908 384.002 96.004C384.002 100.1 382.434 104.196 379.314 107.316C373.058 113.572 362.946 113.572 356.69 107.316L272.002 22.628L272.002 400.004C272.002 408.852 264.85 416.004 256.002 416.004C247.1540000000001 416.004 240.002 408.852 240.002 400.004" />
    <glyph glyph-name="find"
      unicode="&#xEA26;"
      horiz-adv-x="512" d="M207.998 128C146.254 128 95.998 178.256 95.998 240C95.998 301.7440000000001 146.254 352 207.998 352C269.742 352 319.998 301.7440000000001 319.998 240C319.998 178.256 269.742 128 207.998 128M443.31 27.312L319.998 150.624C339.71 175.248 351.998 206.064 351.998 240C351.998 319.408 287.406 384 207.998 384C128.59 384 63.998 319.408 63.998 240C63.998 160.592 128.59 96 207.998 96C241.934 96 272.75 108.288 297.374 128L420.686 4.688C423.806 1.568 427.902 0 431.998 0C436.094 0 440.19 1.568 443.31 4.688C449.566 10.944 449.566 21.056 443.31 27.312" />
    <glyph glyph-name="target"
      unicode="&#xEA24;"
      horiz-adv-x="512" d="M272 65.6256L272 111.9936C272 120.8416 264.848 127.9936 256 127.9936C247.152 127.9936 240 120.8416 240 111.9936L240 65.6256C182.336 72.9216 136.928 118.3296 129.616 175.9936L176 175.9936C184.848 175.9936 192 183.1616 192 191.9936C192 200.8416 184.848 207.9936 176 207.9936L129.616 207.9936C136.928 265.6736 182.336 311.0816 240 318.3776000000001L240 271.9936C240 263.1616 247.152 255.9936 256 255.9936C264.848 255.9936 272 263.1616 272 271.9936L272 318.3776000000001C329.664 311.0816 375.072 265.6736 382.368 207.9936L336 207.9936C327.152 207.9936 320 200.8416 320 191.9936C320 183.1616 327.152 175.9936 336 175.9936L382.368 175.9936C375.072 118.3296 329.664 72.9216 272 65.6256M432 207.9936L414.368 207.9936C406.768 283.2896 347.28 342.7616 272 350.3776000000001L272 367.9936C272 376.8416 264.848 383.9936 256 383.9936C247.152 383.9936 240 376.8416 240 367.9936L240 350.3776000000001C164.72 342.7616 105.232 283.2896 97.616 207.9936L80 207.9936C71.152 207.9936 64 200.8416 64 191.9936C64 183.1616 71.152 175.9936 80 175.9936L97.616 175.9936C105.232 100.7136 164.72 41.2416 240 33.6256L240 15.9936C240 7.1616 247.152 -0.0064 256 -0.0064C264.848 -0.0064 272 7.1616 272 15.9936L272 33.6256C347.28 41.2416 406.768 100.7136 414.368 175.9936L432 175.9936C440.848 175.9936 448 183.1616 448 191.9936C448 200.8416 440.848 207.9936 432 207.9936" />
    <glyph glyph-name="log-out"
      unicode="&#xEA27;"
      horiz-adv-x="512" d="M359.408 390.592C433.776 351.7920000000001 480 275.68 480 192C480 68.48 379.52 -32 256 -32C132.48 -32 32 68.48 32 192C32 275.68 78.208 351.776 152.592 390.592C160.448 394.688 170.112 391.648 174.192 383.808C178.272 375.968 175.232 366.32 167.408 362.224C103.632 328.944 64 263.712 64 192C64 86.128 150.128 0 256 0C361.872 0 448 86.128 448 192C448 263.728 408.368 328.96 344.592 362.224C336.768 366.32 333.728 375.968 337.808 383.808C341.904 391.648 351.504 394.688 359.408 390.592zM256 416C264.848 416 272 408.848 272 400L272 272C272 263.152 264.848 256 256 256C247.152 256 240 263.152 240 272L240 400C240 408.848 247.152 416 256 416z" />
    <glyph glyph-name="page"
      unicode="&#xEA28;"
      horiz-adv-x="512" d="M300.256445 384C303.859433 384 307.334613 382.7848769800001 310.1364260000001 380.58523869L311.732344 379.14915875L411.4758990000001 276.482492C413.893558 273.993981 415.423522 270.801807 415.866353 267.397466L416 265.333333L416 48C416 22.437106 396.0172810000001 1.541426 370.820365 0.081483L368 0L144 0C118.4371059 0 97.54142593 19.982719 96.0814830946 45.179635L96 48L96 336C96 361.5628941 115.9827194 382.45857407 141.1796354 383.9185169054L144 384L300.256445 384zM272 352L144 352C135.7946266 352 129.0318854 345.823357 128.1076437 337.8659380000001L128 336L128 48C128 39.794627 134.176643 33.031885 142.134062 32.107644L144 32L368 32C376.205373 32 382.968115 38.176643 383.892356 46.134062L384 48L384 240L288 240C279.794627 240 273.031885 246.176643 272.107644 254.134062L272 256L272 352zM336 112C344.836556 112 352 104.836556 352 96C352 87.794627 345.823357 81.031885 337.8659380000001 80.107644L336 80L176 80C167.163444 80 160 87.163444 160 96C160 104.205373 166.176643 110.968115 174.134062 111.892356L176 112L336 112zM336 176C344.836556 176 352 168.836556 352 160C352 151.794627 345.823357 145.031885 337.8659380000001 144.107644L336 144L176 144C167.163444 144 160 151.163444 160 160C160 168.205373 166.176643 174.968115 174.134062 175.892356L176 176L336 176zM304 341.184L304 272L371.2 272L304 341.184z" />
    <glyph glyph-name="camera"
      unicode="&#xEA25;"
      horiz-adv-x="512" d="M160 384C164.256 384 168.32 382.32 171.312 379.312L230.624 320L464 320C472.848 320 480 312.848 480 304L480 16C480 7.152 472.848 0 464 0L48 0C39.152 0 32 7.152 32 16L32 368C32 376.848 39.152 384 48 384L160 384zM153.376 352L64 352L64 32L448 32L448 288L224 288C219.744 288 215.68 289.68 212.688 292.688L153.376 352zM256 256C308.944 256 352 212.944 352 160C352 107.056 308.944 64 256 64C203.056 64 160 107.056 160 160C160 212.944 203.056 256 256 256zM256 224C220.704 224 192 195.296 192 160C192 124.704 220.704 96 256 96C291.296 96 320 124.704 320 160C320 195.296 291.296 224 256 224zM432 384C440.848 384 448 376.848 448 368C448 359.152 440.848 352 432 352L272 352C263.152 352 256 359.152 256 368C256 376.848 263.152 384 272 384L432 384z" />
    <glyph glyph-name="euro"
      unicode="&#xEA29;"
      horiz-adv-x="512" d="M312.0635914067151 416C380.9310534067151 416 444.3762764067151 382.3427025 484.8933084067151 326.3832952C490.0755914067151 319.2258744 488.4744244067151 309.222569 481.3170044067151 304.040286C474.1595834067151 298.858004 464.1562774067151 300.45917 458.9739954067151 307.616591C424.3691424067151 355.4104925000001 370.4768864067151 384 312.0635914067151 384C232.0429134067151 384 163.8082814067151 330.6323251 138.5307114067151 256.001008L312.0651914067151 256C320.9017474067151 256 328.0651914067151 248.836556 328.0651914067151 240C328.0651914067151 231.794627 321.8885484067151 225.031885 313.9311294067151 224.107644L312.0651914067151 224L130.6061174067151 223.99919C128.9340554067151 213.594755 128.0635914067151 202.904715 128.0635914067151 192C128.0635914067151 181.08971 128.9349464067151 170.394315 130.6086834067151 159.984853L280.0651914067151 160C288.9017474067151 160 296.0651914067151 152.836556 296.0651914067151 144C296.0651914067151 135.794627 289.8885484067151 129.031885 281.9311294067151 128.107644L280.0651914067151 128L138.5361314067151 127.982992C163.8180344067151 53.360047 232.0486324067151 0 312.0635914067151 0C370.4768864067151 0 424.3691424067151 28.589508 458.9739954067151 76.383409C464.1562774067151 83.54083 474.1595834067151 85.141996 481.3170044067151 79.959714C488.4744244067151 74.777431 490.0755914067151 64.774126 484.8933084067151 57.616705C444.3762764067151 1.657297 380.9310534067151 -32 312.0635914067151 -32C214.1177914067151 -32 131.5547604067151 35.536494 105.0136675067151 127.99179L40.0651914067151 128C31.2286354067151 128 24.0651914067151 135.163444 24.0651914067151 144C24.0651914067151 152.205373 30.2418344467151 158.968115 38.1992534067151 159.892356L40.0651914067151 160L98.2538068067151 159.987955C96.8103684067151 170.444576 96.0635914067151 181.132776 96.0635914067151 192C96.0635914067151 202.861673 96.8096058067151 213.544506 98.2515957067151 223.996024L72.0651914067151 224C63.2286354067151 224 56.0651914067151 231.163444 56.0651914067151 240C56.0651914067151 248.205373 62.2418344067151 254.968115 70.1992534067151 255.892356L72.0651914067151 256L105.0090498067151 255.992122C131.5451834067151 348.4556712 214.1121104067151 416 312.0635914067151 416z" />
    <glyph glyph-name="file-doc"
      unicode="&#xEA2A;"
      horiz-adv-x="512" d="M273.0175249175045 384C276.6205129175045 384 280.0956929175045 382.7848769800001 282.8975059175046 380.58523869L284.4934239175045 379.14915875L384.2369789175046 276.482492C386.6546379175045 273.993981 388.1846019175046 270.801807 388.6274329175045 267.397466L388.7610799175045 265.333333L388.7610799175045 208C388.7610799175045 199.163444 381.5976359175045 192 372.7610799175045 192C364.5557069175045 192 357.7929649175045 198.176643 356.8687239175046 206.134062L356.7610799175045 208L356.7610799175045 240L260.7610799175045 240C252.5557069175045 240 245.7929649175045 246.176643 244.8687239175045 254.134062L244.7610799175046 256L244.7610799175046 352L116.7610799175045 352C108.5557065175046 352 101.7929653175045 345.823357 100.8687236175045 337.8659380000001L100.7610799175045 336L100.7610799175045 48C100.7610799175045 39.794627 106.9377229175046 33.031885 114.8951419175045 32.107644L116.7610799175045 32L292.7610799175045 32C301.5976359175045 32 308.7610799175045 24.836556 308.7610799175045 16C308.7610799175045 7.794627 302.5844369175045 1.031885 294.6270179175046 0.107644L292.7610799175045 0L116.7610799175045 0C91.1981858175045 0 70.3025058475045 19.982719 68.8425630121045 45.179635L68.7610799175046 48L68.7610799175046 336C68.7610799175046 361.5628941 88.7437993175045 382.45857407 113.9407153175045 383.9185169054L116.7610799175045 384L273.0175249175045 384zM419.5429999175045 171.005873C423.1861999175045 170.343473 426.3397999175045 169.580273 429.0613999175046 168.730673C431.8693999175046 167.837873 434.2021999175046 166.930673 436.0597999175045 165.994673L438.5095999175045 164.729273L438.5095999175045 164.729273L440.1493999175045 163.777073L440.1493999175045 163.777073C441.5605999175046 162.869873 442.1509999175046 161.127473 441.5893999175046 159.543473L435.1237999175046 141.399473C434.7637999175046 140.420273 434.0149999175045 139.628273 433.0357999175045 139.253873C432.0709999175046 138.893873 431.0053999175045 138.937073 430.0549999175046 139.441073C427.1893999175045 140.938673 423.8053999175046 142.249073 420.0037999175046 143.329073C413.8837999175046 145.042673 405.7477999175045 145.993073 398.1301999175046 143.386673C395.3221999175046 142.407473 392.8309999175046 140.823473 390.7285999175046 138.706673C388.5253999175045 136.532273 386.7829999175046 133.709873 385.4005999175046 130.081073C384.0325999175045 126.452273 383.3269999175045 121.959473 383.3269999175045 116.703473C383.3269999175045 112.412273 383.8021999175045 108.380273 384.7381999175045 104.708273C385.6165999175046 101.209073 387.0421999175045 98.199473 388.9861999175046 95.737073C390.8725999175046 93.317873 393.3925999175046 91.359473 396.5029999175046 89.948273C401.7877999175046 87.471473 410.6005999175045 87.399473 416.5189999175045 88.292273C418.9669999175045 88.652273 421.1269999175046 89.084273 423.0133999175046 89.573873C424.8709999175045 90.049073 426.4549999175046 90.596273 427.8517999175046 91.201073L431.9269999175046 93.029873C432.8341999175045 93.461873 433.9141999175046 93.461873 434.8501999175045 93.087473C435.8005999175046 92.684273 436.5349999175045 91.906673 436.8517999175046 90.941873L443.0437999175046 72.941873C443.5909999175045 71.343473 442.9573999175045 69.572273 441.5173999175046 68.708273C438.0901999175045 66.591473 433.3957999175045 64.762673 427.1749999175046 63.106673C421.1413999175045 61.508273 414.1141999175045 60.687473 406.2517999175045 60.687473C389.0581999175046 60.687473 375.6805999175046 65.626673 366.5365999175046 75.361073C357.4213999175046 85.023473 352.8133999175045 98.789873 352.8133999175045 116.257073C352.8133999175045 124.940273 354.2101999175045 132.831473 356.9461999175045 139.7002730000001C359.7109999175045 146.583473 363.5557999175045 152.516273 368.4229999175045 157.340273C373.3189999175046 162.164273 379.1797999175045 165.865073 385.8613999175045 168.313073C396.2581999175045 172.1866730000001 409.4917999175045 172.791473 419.5429999175045 171.005873zM310.6177199175045 168.462833C317.0833199175045 166.115633 322.8433199175046 162.501233 327.7537199175046 157.720433C332.5777199175045 152.982833 336.4513199175045 147.078833 339.2305199175046 140.152433C341.9809199175045 133.269233 343.3777199175046 125.219633 343.3777199175046 116.262833C343.3777199175046 107.291633 341.9953199175045 99.256433 339.3025199175046 92.416433C336.5953199175046 85.504433 332.8225199175046 79.614833 328.0561199175045 74.906033C323.2897199175045 70.182833 317.5297199175045 66.582833 310.9633199175045 64.206833C304.5121199175045 61.874033 297.4849199175045 60.693233 290.0833199175045 60.693233C282.8689199175045 60.693233 275.9569199175045 61.874033 269.5489199175045 64.221233C263.0977199175045 66.568433 257.3377199175045 70.168433 252.4561199175046 74.877233C247.5745199175046 79.600433 243.7009199175046 85.490033 240.9505199175045 92.402033C238.2001199175045 99.270833 236.8177199175046 107.306033 236.8177199175046 116.262833C236.8177199175046 125.219633 238.2577199175046 133.269233 241.1089199175046 140.181233C243.9889199175046 147.093233 247.9201199175046 152.997233 252.8161199175045 157.734833C257.7121199175046 162.472433 263.4577199175045 166.086833 269.9089199175045 168.462833C282.7681199175045 173.243633 297.9313199175046 173.114033 310.6177199175045 168.462833zM167.0330799175045 170.840273C175.8890799175045 170.840273 184.0250799175046 169.832273 191.2682799175046 167.830673C198.7418799175045 165.757073 205.2218799175046 162.473873 210.5066799175045 158.038673C215.8922799175046 153.617873 220.1258799175045 147.814673 223.0490799175046 140.845073C225.9146799175046 133.990673 227.3834799175046 125.710673 227.3834799175046 116.264273C227.3834799175046 107.177873 225.9146799175046 99.099473 223.0490799175046 92.273873C220.1258799175045 85.275473 215.9498799175045 79.457873 210.6506799175045 74.936273C205.3370799175045 70.385873 198.7850799175045 66.958673 191.2106799175045 64.712273C183.8378799175045 62.509073 175.4570799175045 61.400273 166.3274799175045 61.400273C162.2090799175045 61.400273 157.4426799175045 61.573073 151.9850799175045 61.918673C146.4554799175045 62.264273 140.9546799175045 62.998673 135.6554799175046 64.064273C133.9706799175045 64.395473 132.7610799175045 65.878673 132.7610799175045 67.592273L132.7610799175045 164.792273C132.7610799175045 166.520273 133.9994799175046 168.017873 135.7274799175045 168.334673C141.0266799175046 169.299473 146.6138799175045 169.976273 152.3594799175045 170.336273L160.3064799175045 170.712473C162.7526799175045 170.797073 164.9954799175045 170.840273 167.0330799175045 170.840273zM290.0833199175045 145.062833C286.4257199175045 145.062833 283.1857199175046 144.386033 280.4353199175046 143.046833C277.6705199175045 141.722033 275.3233199175045 139.835633 273.4225199175045 137.430833C271.4497199175045 134.997233 269.9233199175045 131.958833 268.8289199175046 128.402033C267.7489199175045 124.730033 267.1873199175045 120.640433 267.1873199175045 116.262833C267.1873199175045 111.798833 267.7345199175045 107.694833 268.8289199175046 104.051633C269.9233199175045 100.509233 271.4209199175046 97.586033 273.4081199175046 95.109233C275.3233199175045 92.704433 277.6705199175045 90.846833 280.3921199175045 89.565233C285.9073199175046 86.987633 294.0001199175046 86.958833 299.7457199175045 89.565233C302.5105199175046 90.861233 304.8865199175046 92.718833 306.7873199175046 95.094833C308.7745199175046 97.614833 310.3009199175046 100.624433 311.3377199175045 104.051633C312.4321199175046 107.608433 312.9793199175046 111.726833 312.9793199175046 116.262833C312.9793199175046 120.813233 312.4321199175046 124.946033 311.3377199175045 128.546033C310.2865199175045 132.045233 308.7745199175046 135.083633 306.7729199175045 137.574833C304.8721199175045 139.965233 302.5681199175046 141.779633 299.7457199175045 143.090033C296.8945199175046 144.414833 293.7265199175046 145.062833 290.0833199175045 145.062833zM166.8592413175045 144.49263L162.4394799175046 144.373073L162.4394799175046 144.373073L162.4394799175046 87.968273L167.4794799175045 87.896273L167.4794799175045 87.896273C177.6602799175046 87.896273 185.1770799175045 90.373073 189.8426799175045 95.283473C194.6666799175045 100.280273 196.9994799175046 107.149073 196.9994799175046 116.264273C196.9994799175046 125.710673 194.7242799175045 132.867473 190.2458799175046 137.533073C185.5593349175045 142.350528 177.5762599175045 144.525999 166.8592413175045 144.49263zM276.7610799175045 341.184L276.7610799175045 272L343.9610799175046 272L276.7610799175045 341.184z" />
    <glyph glyph-name="file-ppt"
      unicode="&#xEA2C;"
      horiz-adv-x="512" d="M283.595165 384C287.198153 384 290.673333 382.7848769800001 293.475146 380.58523869L295.071064 379.14915875L394.814619 276.482492C397.232278 273.993981 398.762242 270.801807 399.205073 267.397466L399.33872 265.333333L399.33872 208C399.33872 199.163444 392.175276 192 383.33872 192C375.133347 192 368.370605 198.176643 367.446364 206.134062L367.33872 208L367.32272 240L271.33872 240C263.133347 240 256.370605 246.176643 255.446364 254.134062L255.33872 256L255.33872 352L127.33872 352C119.1333466 352 112.3706054 345.823357 111.4463637 337.8659380000001L111.33872 336L111.33872 48C111.33872 39.794627 117.515363 33.031885 125.472782 32.107644L127.33872 32L303.33872 32C312.175276 32 319.33872 24.836556 319.33872 16C319.33872 7.794627 313.162077 1.031885 305.204658 0.107644L303.33872 0L127.33872 0C101.7758259 0 80.88014593 19.982719 79.4202030946 45.179635L79.33872 48L79.33872 336C79.33872 361.5628941 99.3214394 382.45857407 124.5183554 383.9185169054L127.33872 384L283.595165 384zM185.97616 172.704C201.48496 172.704 213.68176 169.8672 222.22096 164.2656C231.22096 158.3328 235.78576 148.6704 235.78576 135.552C235.78576 122.304 231.16336 112.5552 222.06256 106.5648C213.48016 100.8624 201.18256 97.9824 185.52976 97.9824L182.08816 97.9824L182.08816 68.1744C182.08816 66.1872 180.47536 64.5744 178.48816 64.5744L156.00976 64.5744C154.02256 64.5744 152.40976 66.1872 152.40976 68.1744L152.40976 166.5264C152.40976 168.24 153.63376 169.7232 155.31856 170.0544C160.37296 171.0336 165.75856 171.7392 171.31696 172.1136C176.88976 172.5168 181.78576 172.704 185.97616 172.704zM286.1536 172.704C301.6912 172.704 313.8736 169.8672 322.3983999999999 164.2656C331.4128 158.3472 335.9776 148.6848 335.9776 135.552C335.9776 122.3184 331.3696 112.584 322.2544000000001 106.5648C313.6432 100.8624 301.3312 97.9824 285.7072 97.9824L282.2512 97.9824L282.2512 68.1744C282.2512 66.1872 280.6384 64.5744 278.6512 64.5744L256.2016 64.5744C254.2288 64.5744 252.6016 66.1872 252.6016 68.1744L252.6016 166.5264C252.6016 168.24 253.8256000000001 169.7232 255.5248 170.0544C260.5792 171.048 265.9504 171.7392 271.5088 172.1136C277.0672 172.5168 281.9488 172.704 286.1536 172.704zM429.06128 171.56064C431.0484800000001 171.56064 432.6612800000001 169.93344 432.6612800000001 167.96064L432.6612800000001 148.80864C432.6612800000001 146.82144 431.0484800000001 145.20864 429.06128 145.20864L402.5652800000001 145.20864L402.5652800000001 68.16864C402.5652800000001 66.18144 400.9524800000001 64.56864 398.96528 64.56864L376.4868800000001 64.56864C374.5140800000001 64.56864 372.88688 66.18144 372.88688 68.16864L372.88688 145.20864L346.40528 145.20864C344.4180800000001 145.20864 342.8052800000001 146.82144 342.8052800000001 148.80864L342.8052800000001 167.96064C342.8052800000001 169.93344 344.4180800000001 171.56064 346.40528 171.56064L429.06128 171.56064zM186.20026 146.360775L182.08816 146.1792L182.08816 124.3344L185.52976 124.3344C192.65776 124.3344 198.00016 125.2416 201.39856 127.0704C203.11216 127.992 205.40176 129.8928 205.40176 135.7104C205.40176 137.856 205.04176 139.5984 204.33616 140.8656C203.61616 142.176 202.68016 143.1408 201.36976 143.8752C199.84336 144.7824 197.98576 145.4016 195.78256 145.7472C192.98536 146.2008 189.60496 146.4114 186.20026 146.360775zM286.401775 146.360775L282.2512 146.1792L282.2512 124.3344L285.7072 124.3344C292.8496 124.3344 298.192 125.2416 301.5904 127.0704C303.304 127.992 305.5936000000001 129.8928 305.5936000000001 135.7104C305.5936000000001 137.856 305.2336 139.5984 304.528 140.8656C303.8224 142.1328 302.8432 143.1264 301.5328 143.8896C300.0352000000001 144.7824 298.1632 145.4016 295.9456 145.7472C293.1592 146.2008 289.8139 146.4114 286.401775 146.360775zM354.5227200000001 272L287.33872 341.168L287.33872 272L354.5227200000001 272z" />
    <glyph glyph-name="file-pdf"
      unicode="&#xEA2B;"
      horiz-adv-x="512" d="M283.637285 384C287.240273 384 290.715453 382.7848769800001 293.5172660000001 380.58523869L295.1131840000001 379.14915875L394.8567390000001 276.482492C397.274398 273.993981 398.804362 270.801807 399.2471930000001 267.397466L399.3808400000001 265.333333L399.3808400000001 208C399.3808400000001 199.163444 392.217396 192 383.3808400000001 192C375.1754670000001 192 368.412725 198.176643 367.488484 206.134062L367.3808400000001 208L367.3808400000001 240L271.3808400000001 240C263.1754670000001 240 256.412725 246.176643 255.488484 254.134062L255.38084 256L255.38084 352L127.38084 352C119.1754666 352 112.4127254 345.823357 111.4884837 337.8659380000001L111.38084 336L111.38084 48C111.38084 39.794627 117.557483 33.031885 125.514902 32.107644L127.38084 32L303.3808400000001 32C312.217396 32 319.3808400000001 24.836556 319.3808400000001 16C319.3808400000001 7.794627 313.204197 1.031885 305.2467780000001 0.107644L303.3808400000001 0L127.38084 0C101.8179459 0 80.92226593 19.982719 79.4623230946 45.179635L79.38084 48L79.38084 336C79.38084 361.5628941 99.3635594 382.45857407 124.5604754 383.9185169054L127.38084 384L283.637285 384zM282.3529200000001 172.712C291.2233200000001 172.712 299.3737200000001 171.704 306.57372 169.7024C314.01852 167.6432 320.49852 164.36 325.84092 159.9248C331.2265200000001 155.4896 335.46012 149.6864 338.3833200000001 142.7168C341.24892 135.9056 342.6889200000001 127.64 342.6889200000001 118.136C342.6889200000001 109.0064 341.24892 100.9424 338.3833200000001 94.1456C335.47452 87.176 331.2841200000001 81.344 325.9561200000001 76.808C320.64252 72.272 314.11932 68.8304 306.5593200000001 66.5984C299.1721200000001 64.3808 290.7913200000001 63.272 281.6473200000001 63.272C277.52892 63.272 272.76252 63.4448 267.3049200000001 63.7904C261.7609200000001 64.136 256.2601200000001 64.8704 250.98972 65.936C249.30492 66.2672 248.09532 67.7504 248.09532 69.464L248.09532 166.664C248.09532 168.392 249.33372 169.8896 251.04732 170.2064C256.3465200000001 171.1712 261.93372 171.848 267.69372 172.208C273.3673200000001 172.5392 278.2777200000001 172.712 282.3529200000001 172.712zM184.50412 172.7048C200.01292 172.7048 212.20972 169.868 220.74892 164.2664C229.74892 158.3336 234.31372 148.6712 234.31372 135.5528C234.31372 122.3048 229.69132 112.556 220.59052 106.5656C212.00812 100.8632 199.71052 97.9832 184.05772 97.9832L180.61612 97.9832L180.61612 68.1752C180.61612 66.188 179.00332 64.5752 177.01612 64.5752L154.53772 64.5752C152.55052 64.5752 150.93772 66.188 150.93772 68.1752L150.93772 166.5272C150.93772 168.2408 152.16172 169.724 153.84652 170.0552C158.90092 171.0344 164.28652 171.74 169.84492 172.1144L177.69292 172.5608L177.69292 172.5608L184.50412 172.7048zM429.0191600000001 171.56144C431.00636 171.56144 432.61916 169.93424 432.61916 167.9614400000001L432.61916 149.09744C432.61916 147.11024 431.00636 145.49744 429.0191600000001 145.49744L388.26716 145.49744L388.26716 131.81744L424.12316 131.81744C426.11036 131.81744 427.72316 130.2046400000001 427.72316 128.21744L427.72316 109.35344C427.72316 107.38064 426.11036 105.75344 424.12316 105.75344L388.26716 105.75344L388.26716 68.16944C388.26716 66.18224 386.65436 64.56944 384.66716 64.56944L362.2175600000001 64.56944C360.2447600000001 64.56944 358.6175600000001 66.18224 358.6175600000001 68.16944L358.6175600000001 167.9614400000001C358.6175600000001 169.93424 360.2447600000001 171.56144 362.2175600000001 171.56144L429.0191600000001 171.56144zM282.1664120000001 146.353932L277.74492 146.2448L277.74492 89.84L282.81372 89.768C292.9657200000001 89.768 300.48252 92.2592 305.17692 97.1552C309.97212 102.152 312.3049200000001 109.0208 312.3049200000001 118.136C312.3049200000001 127.5824 310.02972 134.7392 305.5513200000001 139.4048C300.8909560000001 144.209164 292.8507580000001 146.359643 282.1664120000001 146.353932zM184.73227 146.361575L180.61612 146.18L180.61612 124.3352L184.05772 124.3352C191.18572 124.3352 196.52812 125.2424 199.92652 127.0712C201.64012 127.9928 203.92972 129.8936 203.92972 135.7112C203.92972 137.8568 203.56972 139.5992 202.86412 140.8664C202.14412 142.1768 201.20812 143.1416000000001 199.89772 143.876C198.37132 144.7832 196.51372 145.4024 194.31052 145.748C191.50252 146.2016 188.13562 146.4122 184.73227 146.361575zM287.3808400000001 341.184L287.3808400000001 272L354.58084 272L287.3808400000001 341.184z" />
    <glyph glyph-name="warning"
      unicode="&#xEA20;"
      horiz-adv-x="512" d="M269.777907019067 376.6816L477.777907019067 24.6816C480.6899070190669 19.7376 480.753907019067 13.6096 477.9059070190669 8.6176C475.057907019067 3.6416 469.745907019067 0.5536 464.0019070190669 0.5536L48.001907419067 0.5536C42.257907419067 0.5536 36.961907369067 3.6416 34.113907369067 8.6176C31.249907373067 13.6096 31.297907373067 19.7376 34.225907369067 24.6816L242.225907019067 376.6816C248.001907019067 386.4416 264.001907019067 386.4416 269.777907019067 376.6816zM256.001907019067 337.0976L76.033907419067 32.5536L435.969907019067 32.5536L256.001907019067 337.0976zM256.003507019067 96.5536C264.835507019067 96.5536 272.003507019067 89.3856 272.003507019067 80.5536C272.003507019067 71.7056 264.835507019067 64.5536 256.003507019067 64.5536C247.171507019067 64.5536 240.003507019067 71.7056 240.003507019067 80.5536C240.003507019067 89.3856 247.171507019067 96.5536 256.003507019067 96.5536zM256.003507019067 256.5536C264.851507019067 256.5536 272.003507019067 249.3856 272.003507019067 240.5536L272.003507019067 144.5536C272.003507019067 135.7056 264.851507019067 128.5536 256.003507019067 128.5536C247.155507019067 128.5536 240.003507019067 135.7056 240.003507019067 144.5536L240.003507019067 240.5536C240.003507019067 249.3856 247.155507019067 256.5536 256.003507019067 256.5536z" />
    <glyph glyph-name="file-xls"
      unicode="&#xEA2D;"
      horiz-adv-x="512" d="M281.0879455 384C284.6909334999999 384 288.1661135 382.7848769800001 290.9679265 380.58523869L292.5638445 379.14915875L392.3073995 276.482492C394.7250585 273.993981 396.2550225 270.801807 396.6978535 267.397466L396.8315005 265.333333L396.8315005 208C396.8315005 199.163444 389.6680564999999 192 380.8315005 192C372.6261275 192 365.8633855 198.176643 364.9391445 206.134062L364.8315005 208L364.8315005 240L268.8315005 240C260.6261275 240 253.8633855 246.176643 252.9391445 254.134062L252.8315005 256L252.8315005 352L124.8315005 352C116.6261271 352 109.8633859 345.823357 108.9391442 337.8659380000001L108.8315005 336L108.8315005 48C108.8315005 39.794627 115.0081435 33.031885 122.9655625 32.107644L124.8315005 32L300.8315005 32C309.6680564999999 32 316.8315005 24.836556 316.8315005 16C316.8315005 7.794627 310.6548575 1.031885 302.6974385 0.107644L300.8315005 0L124.8315005 0C99.2686064 0 78.37292643 19.982719 76.9129835946 45.179635L76.8315005 48L76.8315005 336C76.8315005 361.5628941 96.8142199 382.45857407 122.0111359 383.9185169054L124.8315005 384L281.0879455 384zM397.2964995 173.992C404.3380995 173.992 410.5444995000001 173.2288 415.7428995 171.7024C420.9556994999999 170.1616 425.1316995 168.52 428.5444995000001 166.6624C430.1140995 165.7984 430.8196995 163.9264 430.2004995 162.256L423.7348995 144.544C423.3748995 143.5648 422.6116995 142.7872 421.6612995 142.4128C420.7108995 142.0384 419.6020995 142.1248 418.6948995 142.5856C416.1028994999999 143.9248 413.1652995 145.1344 409.9540995 146.1568C406.9156995 147.1504 403.1572995 147.64 398.7508995 147.64C393.6730994999999 147.64 390.9987495000001 146.95645 389.6088125 146.274278L389.0884995 145.984C388.1668995 145.3936 387.2164995 144.5008 387.2164995 142.1824C387.2164995 141.0736 387.4324995 140.2528 387.8644995 139.6192C388.4692994999999 138.7552 389.3764995 137.9632 390.4996995 137.2432C391.9540995 136.3216 393.5668995 135.5152 395.3956995 134.7952L399.7082325 133.1696C400.4756995 132.8944 401.2660995 132.616 402.0772995 132.3328C407.5060995 130.3168 412.0420995 128.4016 416.0164995 126.4864C420.2356995 124.4128 423.7636995000001 121.9792 426.5284995 119.272C429.4516995 116.4064 431.6404994999999 113.008 433.0660995 109.1488C434.4628995 105.448 435.1684995 100.8976 435.1684995 95.6704C435.1684995 85.2448 431.4244995 76.9936 424.0228995 71.1616C416.8804995 65.5312 406.1956995 62.6944 392.2564995 62.6944C387.7492995 62.6944 383.5444995000001 62.9824 379.7860995 63.5296C376.0708995 64.0768 372.7588995 64.768 369.9076994999999 65.5456C366.9988995 66.3808 364.4788995 67.2448 362.3908995 68.1664C360.2740994999999 69.1024 358.5028995 69.9808 357.0772995 70.7872C355.5508995 71.6368 354.8596994999999 73.4656 355.4500995 75.1216L361.8148995 92.992C362.1604995 93.9856 362.9380995 94.7776 363.9172995 95.1376C364.9396995 95.4832 366.0052995 95.4256 366.9412995 94.9216C369.6340995 93.4384 373.0900995 92.0704 377.2228995 90.832C381.2404995 89.6512 386.3092995 89.0464 392.2564995 89.0464C395.1508994999999 89.0464 397.4836995 89.2768 399.1972995 89.7232C400.8100995 90.112 402.0916995 90.6592 402.9556994999999 91.2928C403.6324995 91.7968 404.0788994999999 92.3296 404.3092995 92.92C404.6260995 93.7696 404.7988995 94.7632 404.7988995 95.8144C404.7988995 97.1104 404.4820995 99.0544 401.7172995 100.984C398.9812995 102.928 393.9700995 105.1168 386.8132995 107.5072C383.4004995 108.7168 380.0308995000001 110.0848 376.6756995 111.6112C373.1476995 113.2096 369.8788995 115.2688 366.9988995 117.7888C364.0756995 120.3376 361.6564995 123.4624 359.8276995 127.0912C357.9412995 130.792 356.9908995 135.2848 356.9908995 140.44C356.9908995 145.5376 357.9700995 150.2464 359.9140995 154.4224000000001C361.8292995 158.5408 364.6228995 162.1408 368.2228995 165.1072C371.7796995 168.016 376.0708995 170.248 380.9956995 171.76C385.7908995 173.2432 391.2772995000001 173.992 397.2964995 173.992zM186.4294585 171.69808C187.6390585 171.69808 188.7910585 171.09328 189.4390585 170.07088L205.4806585 145.69168L221.9110585 170.09968C222.5734585 171.10768 223.6966585 171.69808 224.8918585 171.69808L250.4950585 171.69808C251.8198585 171.69808 253.0294585 170.96368 253.6630585 169.78288C254.2822585 168.61648 254.2246585 167.19088 253.4902585 166.08208L222.6022585 120.11728C230.3206585 110.32528 236.9014585 101.06608 242.1862585 92.58448L246.6245655 85.246274L246.6245655 85.246274L250.5207945 78.60229C251.1238725 77.554155 251.7035255 76.535953 252.2593315 75.548188L255.3046585 69.99088L255.3046585 69.99088C255.8950585 68.88208 255.8662585 67.52848 255.2038585 66.44848C254.5558585 65.36848 253.3894585 64.70608 252.1222585 64.70608L225.2374585 64.70608C223.8694585 64.70608 222.6310585 65.46928 222.0262585 66.67888C219.2470585 72.17968 216.1798585 77.75248 212.8966585 83.38288C210.4630585 87.53008 207.7270585 91.21648 204.7174585 94.38448L202.2262585 91.24528C200.2246585 88.66768 198.1942585 85.93168 196.1782585 83.00848C194.1766585 80.09968 192.3046585 77.11888 190.5622585 74.03728L188.2762585 69.90268C187.6246585 68.68768 187.0846585 67.63648 186.6598585 66.75088C186.0550585 65.49808 184.7878585 64.70608 183.4198585 64.70608L157.7734589 64.70608C156.5062589 64.70608 155.3254589 65.36848 154.6774589 66.46288C154.0294589 67.54288 154.0150589 68.89648 154.6198589 70.01968C158.8822589 77.95408 163.9654589 86.17648 169.6822589 94.47088C174.9382589 102.10288 180.8854585 110.33968 187.3798585 119.00848L156.2182589 166.11088C155.4838589 167.20528 155.4262589 168.63088 156.0598589 169.79728C156.6790589 170.96368 157.9030589 171.69808 159.2278589 171.69808L186.4294585 171.69808zM301.3704184999999 171.69808C303.3432184999999 171.69808 304.9704185 170.07088 304.9704185 168.09808L304.9704185 91.20208L345.5784185 91.20208C347.5656185000001 91.20208 349.1784185 89.58928 349.1784185 87.60208L349.1784185 68.30608C349.1784185 66.31888 347.5656185000001 64.70608 345.5784185 64.70608L278.9208185 64.70608C276.9336185 64.70608 275.3208185 66.31888 275.3208185 68.30608L275.3208185 168.09808C275.3208185 170.07088 276.9336185 171.69808 278.9208185 171.69808L301.3704184999999 171.69808zM284.8315005 341.184L284.8315005 272L352.0315005 272L284.8315005 341.184z" />
    <glyph glyph-name="chat"
      unicode="&#xEA30;"
      horiz-adv-x="512" d="M159.9998823749727 260.430448C208.6009403749727 260.430448 247.9998823749727 221.031506 247.9998823749727 172.430448C247.9998823749727 136.368611 226.3084213749727 105.373086 195.2613093749727 91.779684C243.9525203749727 79.914464 279.9998823749727 43.972859 279.9998823749727 -0.000021C279.9998823749727 -8.836577 272.8364383749727 -16.000021 263.9998823749727 -16.000021C255.7945093749727 -16.000021 249.0317673749727 -9.823378 248.1075263749727 -1.865959L247.9998823749727 -0.000021C247.9998823749727 34.293579 209.3815613749727 63.999979 159.9998823749727 63.999979C110.6182032749727 63.999979 71.9998823749727 34.293579 71.9998823749727 -0.000021C71.9998823749727 -8.836577 64.8364383749727 -16.000021 55.9998823749727 -16.000021C47.1633263749727 -16.000021 39.9998823749727 -8.836577 39.9998823749727 -0.000021C39.9998823749727 43.972859 76.0472447749727 79.914464 124.7363136749727 91.806245C93.6913432749727 105.373086 71.9998823749727 136.368611 71.9998823749727 172.430448C71.9998823749727 221.031506 111.3988243749727 260.430448 159.9998823749727 260.430448zM159.9998823749727 228.430448C129.0719363749726 228.430448 103.9998823749727 203.358394 103.9998823749727 172.430448C103.9998823749727 141.502502 129.0719363749726 116.430448 159.9998823749727 116.430448C190.9278283749727 116.430448 215.9998823749727 141.502502 215.9998823749727 172.430448C215.9998823749727 203.358394 190.9278283749727 228.430448 159.9998823749727 228.430448zM280.8040403749727 383.1959874000001C324.5427233749727 426.9346709 395.4572763749727 426.9346709 439.1959593749727 383.1959874000001C482.9347793749727 339.4571677 482.9348393749726 268.542616 439.1961253749727 224.803902C404.0849383749727 189.692715 350.6098603749727 182.273692 307.7660503749727 204.894691L307.3573143749727 205.129529L268.8910263749727 192.76579C257.2003063749727 189.012224 246.1152303749727 199.209052 248.2374593749727 210.791121L248.7516353749727 212.846838L261.0389913749726 251.515734L258.8904253749727 255.753511C239.3310413749727 296.685031 246.3414643749727 346.2417949 277.9463863749727 380.2326021L280.8040403749727 383.1959874000001zM416.5685423749727 360.5685704C385.3266363749726 391.8104765 334.6733633749726 391.8104765 303.4314573749727 360.5685704C277.0000503749727 334.1371634 272.5353523749727 293.112304 292.0047203749727 261.808576C294.4774613749727 257.8327920000001 295.0846843749727 252.97341 293.6663223749727 248.511397L288.6444403749727 232.734978L304.3135563749727 237.747933C308.1565023749727 238.981796 312.2980753749727 238.710965 315.9180313749727 237.037518L317.6807433749726 236.084382C348.9956513749727 216.525476 390.0982303749727 220.960841 416.5687083749727 247.431319C447.8106363749727 278.673247 447.8105933749727 329.3265195 416.5685423749727 360.5685704z" />
    <glyph glyph-name="call-back"
      unicode="&#xEA33;"
      horiz-adv-x="512" d="M192 352C200.848 352 208 344.848 208 336C208 304.896 215.328 275.072 229.776 247.408C232.752 241.696 232.032 234.784 227.936 229.808L195.824 190.896C212.384 166.608 230.416 148.592 254.912 131.84L293.808 163.936C298.7680000000001 168.048 305.68 168.8 311.408 165.776C339.072 151.328 368.896 144 400 144C408.848 144 416 136.848 416 128L416 48C416 21.536 394.464 0 368 0C200.368 0 64 136.368 64 304C64 330.464 85.536 352 112 352zM176.56 320L112 320C103.168 320 96 312.832 96 304C96 154.016 218.016 32 368 32C376.832 32 384 39.168 384 48L384 112.56C356.992 114.448 330.912 121.2000000000001 306.208 132.672L266.192 99.6640000000001C260.848 95.28 253.296 94.816 247.472 98.448C210.224 121.92 185.6 146.56 162.432 183.504C158.784 189.344 159.28 196.864 163.664 202.192L196.672 242.208C185.2 266.9120000000001 178.448 292.992 176.56 320zM324.688 379.312C330.944 385.568 341.056 385.568 347.312 379.312C353.568 373.056 353.568 362.944 347.312 356.688L310.624 320L432 320C440.848 320 448 312.848 448 304C448 295.152 440.848 288 432 288L310.624 288L347.312 251.312C353.568 245.056 353.568 234.944 347.312 228.688C344.192 225.568 340.096 224 336 224C331.904 224 327.808 225.568 324.688 228.688L260.688 292.688C254.432 298.944 254.432 309.0560000000001 260.688 315.312z" />
    <glyph glyph-name="eye"
      unicode="&#xEA31;"
      horiz-adv-x="512" d="M256 351.9984C378.1760000000001 351.9984 473.44 206.8624 477.44 200.6864C480.848 195.4064 480.848 188.5904000000001 477.44 183.3104C473.44 177.1344 378.1760000000001 31.9984 256 31.9984C133.84 31.9984 38.56 177.1344 34.56 183.3104C31.152 188.5904000000001 31.152 195.4064 34.56 200.6864C38.56 206.8624 133.84 351.9984 256 351.9984zM256 319.9984C166.944 319.9984 89.28 222.1104 67.504 191.9984C89.28 161.8864 166.944 63.9984 256 63.9984C345.072 63.9984 422.7200000000001 161.8864 444.4960000000001 191.9984C422.7200000000001 222.1104 345.072 319.9984 256 319.9984zM256.0048 255.9984C291.3008000000001 255.9984 320.0048000000001 227.2944 320.0048000000001 191.9984C320.0048000000001 156.7024 291.3008000000001 127.9984 256.0048 127.9984C220.7088 127.9984 192.0048 156.7024 192.0048 191.9984C192.0048 227.2944 220.7088 255.9984 256.0048 255.9984zM256.0048 223.9984C238.3568 223.9984 224.0048 209.6464 224.0048 191.9984C224.0048 174.3504 238.3568 159.9984 256.0048 159.9984C273.6528 159.9984 288.0048000000001 174.3504 288.0048000000001 191.9984C288.0048000000001 209.6464 273.6528 223.9984 256.0048 223.9984z" />
    <glyph glyph-name="eye-close"
      unicode="&#xEA32;"
      horiz-adv-x="512" d="M256.006 63.9984C227.462 63.9984 200.134 74.1104 175.398 88.7664L223.702 137.0544C233.222 131.4384 244.182 127.9984 256.006 127.9984C291.302 127.9984 320.006 156.7024 320.006 191.9984C320.006 203.8384 316.566 214.7824 310.95 224.3184L363.558 276.9264C402.774 246.6864 432.342 208.7984 444.502 191.9984C422.726 161.8864 345.062 63.9984 256.006 63.9984M224.006 191.9984C224.006 209.6464 238.358 223.9984 256.006 223.9984C258.854 223.9984 261.558 223.5024 264.198 222.7984L225.206 183.8224C224.502 186.4464 224.006 189.1504 224.006 191.9984M288.006 191.9984C288.006 174.3504 273.654 159.9984 256.006 159.9984C253.158 159.9984 250.454 160.4944 247.83 161.1984L286.822 200.1744C287.51 197.5504 288.006 194.8464 288.006 191.9984M67.51 191.9984C89.286 222.1104 166.95 319.9984 256.006 319.9984C284.55 319.9984 311.894 309.8864 336.614 295.2304000000001L288.326 246.9424C278.806 252.5584 267.846 255.9984 256.006 255.9984C220.71 255.9984 192.006 227.2944 192.006 191.9984C192.006 180.1584 195.462 169.2144 201.078 159.6784L148.47 107.0704C109.238 137.3104 79.67 175.1984 67.51 191.9984M477.446 200.6864C475.062 204.3664 440.038 257.4224000000001 386.342 299.7104L443.318 356.6864C449.574 362.9424 449.574 373.0544 443.318 379.3104C437.062 385.5664 426.95 385.5664 420.694 379.3104L359.958 318.5744C329.174 338.0144 293.894 351.9984 256.006 351.9984C133.83 351.9984 38.566 206.8624 34.566 200.6864C31.142 195.4064 31.142 188.5904 34.566 183.3104C36.966 179.6304 71.99 126.5744 125.67 84.3024L68.694 27.3104C62.438 21.0544 62.438 10.9424 68.694 4.6864C71.814 1.5664 75.91 -0.0016 80.006 -0.0016C84.102 -0.0016 88.198 1.5664 91.318 4.6864L152.054 65.4224C182.854 45.9824 218.118 31.9984 256.006 31.9984C378.182 31.9984 473.446 177.1344 477.446 183.3104C480.854 188.5904 480.854 195.4064 477.446 200.6864" />
    <glyph glyph-name="support-help"
      unicode="&#xEA34;"
      horiz-adv-x="512" d="M256.000326 416C379.520326 416 480.000326 315.52 480.000326 192C480.000326 68.48 379.520326 -32 256.000326 -32C215.664326 -32 176.432326 -21.248 142.016326 -0.848L53.1523264 -31.152C51.4723264 -31.712 49.7283264 -32 48.0003264 -32C43.8563264 -32 39.80832636 -30.4 36.76832636 -27.408C32.448326359 -23.152 30.91232636 -16.816 32.784326359 -11.056L62.2243264 79.584C42.4163264 113.648 31.999674 152.352 31.999674 192C31.999674 315.52 132.480326 416 256.000326 416zM256.000326 384C150.128326 384 64.0003264 297.872 64.0003264 192C64.0003264 155.824 74.1123264 120.576 93.2323264 90.096C95.7603264 86.08 96.3683264 81.152 94.9123264 76.656L73.0883264 9.472L138.832326 31.872C140.496326 32.432 142.256326 32.72 143.984326 32.72C147.008326 32.72 150.016326 31.872 152.624326 30.192C183.440326 10.432 219.184326 0 256.000326 0C361.8723260000001 0 448.000326 86.128 448.000326 192C448.000326 297.872 361.8723260000001 384 256.000326 384zM255.998726 96.0016C264.8307260000001 96.0016 271.9987260000001 88.8496 271.9987260000001 80.0016C271.9987260000001 71.1696 264.8307260000001 64.0016 255.998726 64.0016C247.166726 64.0016 239.998726 71.1696 239.998726 80.0016C239.998726 88.8496 247.166726 96.0016 255.998726 96.0016zM256.005126 320.0016C291.301126 320.0016 320.005126 291.2976 320.005126 256.0016C320.005126 235.7136 308.181126 221.5696 299.3171260000001 212.6896C296.273766 209.64992 293.227867 206.357166 290.3316620000001 203.017497L289.579626 202.14535C280.2241260000001 191.2336 272.601126 180.0136 271.9891260000001 175.6336L271.733126 143.8736C271.6531260000001 135.0736 264.517126 128.0016 255.733126 128.0016L255.605126 128.0016C246.757126 128.0816 239.653126 135.2976 239.733126 144.1296L240.005126 176.1296C240.005126 196.9936 268.069126 226.7056 276.693126 235.3136C284.613126 243.2496 288.005126 249.4416 288.005126 256.0016C288.005126 273.6496 273.637126 288.0016 256.005126 288.0016C238.357126 288.0016 224.005126 273.6496 224.005126 256.0016C224.005126 247.1536 216.837126 240.0016 208.005126 240.0016C199.157126 240.0016 192.005126 247.1536 192.005126 256.0016C192.005126 291.2976 220.709126 320.0016 256.005126 320.0016z" />
    <glyph glyph-name="more-details"
      unicode="&#xEA35;"
      horiz-adv-x="512" d="M207.998 384C287.406 384 351.998 319.408 351.998 240C351.998 206.048 340.126 174.864 320.398 150.224L443.31 27.312C449.566 21.056 449.566 10.944 443.31 4.688C440.19 1.568 436.094 0 431.998 0C427.902 0 423.806 1.568 420.686 4.688L297.774 127.6C273.134 107.872 241.95 96 207.998 96C128.59 96 63.998 160.592 63.998 240C63.998 319.408 128.59 384 207.998 384zM207.998 352C146.254 352 95.998 301.7440000000001 95.998 240C95.998 178.256 146.254 128 207.998 128C269.742 128 319.998 178.256 319.998 240C319.998 301.7440000000001 269.742 352 207.998 352zM207.998 320C216.846 320 223.998 312.848 223.998 304L223.998 256L271.998 256C280.846 256 287.998 248.848 287.998 240C287.998 231.152 280.846 224 271.998 224L223.998 224L223.998 176C223.998 167.152 216.846 160 207.998 160C199.15 160 191.998 167.152 191.998 176L191.998 224L143.998 224C135.15 224 127.998 231.152 127.998 240C127.998 248.848 135.15 256 143.998 256L191.998 256L191.998 304C191.998 312.848 199.15 320 207.998 320z" />
    <glyph glyph-name="chevron-up"
      unicode="&#xEA37;"
      horiz-adv-x="512" d="M256.0059720345211 288.012701C260.5339720345211 288.012701 264.8699720345211 286.092701 267.8939720345211 282.716701L411.893971634521 122.7167006999999C417.797971634521 116.1567006999999 417.269971634521 106.0287007 410.7099716345211 100.1247006699999C404.1659716345211 94.18870067 394.037971634521 94.71670067 388.1179716345211 101.32470067L256.0059720345211 248.092701L123.893972034521 101.32470067C117.989972034521 94.74870067 107.861972034521 94.23670067 101.301972034521 100.12470067C94.7259720345211 106.0287007 94.197972034521 116.1567007 100.1179720345211 122.7167007L244.1179720345211 282.716701C247.1419720345211 286.092701 251.4779720345211 288.012701 256.0059720345211 288.012701" />
    <glyph glyph-name="chevron-down"
      unicode="&#xEA36;"
      horiz-adv-x="512" d="M255.994027965479 95.987199C251.4660279654791 95.987199 247.1300279654791 97.907199 244.1060279654791 101.283199L100.106028365479 261.2831993C94.202028365479 267.8431993 94.730028365479 277.9711993 101.290028365479 283.87519933C107.834028365479 289.81119933 117.962028365479 289.28319933 123.882028365479 282.67519933L255.994027965479 135.907199L388.1060279654791 282.67519933C394.0100279654791 289.25119933 404.138027965479 289.76319933 410.698027965479 283.87519933C417.274027965479 277.9711993 417.802027965479 267.8431993 411.882027965479 261.2831993L267.8820279654791 101.283199C264.8580279654791 97.907199 260.5220279654791 95.987199 255.994027965479 95.987199" />
    <glyph glyph-name="chevron-left"
      unicode="&#xEA38;"
      horiz-adv-x="512" d="M159.9928494666751 192.0032215C159.9928494666751 196.5312215 161.9128494666751 200.8672215 165.2888494666751 203.8912215L325.2888498666751 347.8912215000001C331.8488498666751 353.7952215000001 341.9768498666751 353.2672215 347.8808498666751 346.7072215C353.8168498666751 340.1632215 353.2888498666751 330.0352215 346.6808498666751 324.1152215L199.9128494666751 192.0032215L346.6808498666751 59.891222C353.2568498666751 53.987222 353.7688498666751 43.859222 347.880849866675 37.299222C341.976849866675 30.723222 331.8488498666751 30.195222 325.2888498666751 36.115222L165.2888494666751 180.115222C161.9128494666751 183.139222 159.9928494666751 187.475222 159.9928494666751 192.0032215" />
    <glyph glyph-name="chevron-right"
      unicode="&#xEA39;"
      horiz-adv-x="512" d="M352.0071505333249 191.9967785000001C352.0071505333249 187.4687785000001 350.0871505333249 183.1327785000001 346.711150533325 180.1087785000001L186.7111501333249 36.1087785000001C180.1511501333249 30.2047785000001 170.0231501333249 30.7327785000001 164.1191501333249 37.2927785000001C158.1831501333249 43.8367785000001 158.7111501333249 53.9647785000001 165.3191501333249 59.8847785000001L312.0871505333249 191.9967785000001L165.319150133325 324.1087780000001C158.7431501333249 330.0127780000001 158.2311501333249 340.1407780000001 164.1191501333249 346.7007780000001C170.0231501333249 353.2767780000001 180.1511501333249 353.8047780000001 186.7111501333249 347.8847780000001L346.711150533325 203.8847780000001C350.0871505333249 200.8607780000001 352.0071505333249 196.5247780000001 352.0071505333249 191.9967785000001" />
    <glyph glyph-name="alert"
      unicode="&#xEA3A;"
      horiz-adv-x="512" d="M392 64.0016L120 64.0016C106.768 64.0016 96 74.7696 96 88.0016C96 98.9616 101.056 104.8016 111.584 115.9536C125.248 130.4816 144 150.3696 144 192.0016L144 224.0016C144 285.7456 194.256 336.0016 256 336.0016C317.744 336.0016 368 285.7456 368 224.0016L368 192.0016C368 150.3696 386.752 130.4816 400.416 115.9536C410.944 104.8016 416 98.9616 416 88.0016C416 74.7696 405.2320000000001 64.0016 392 64.0016M256 0.0016C238.352 0.0016 224 14.3536 224 32.0016L288 32.0016C288 14.3536 273.648 0.0016 256 0.0016M423.712 137.9056C410.992 151.4096 400 163.0736 400 192.0016L400 224.0016C400 294.4976000000001 349.04 353.2176 282.048 365.5216000000001C285.76 370.7376 288 377.0896 288 384.0016C288 401.6656 273.664 416.0016 256 416.0016C238.336 416.0016 224 401.6656 224 384.0016C224 377.0896 226.24 370.7376 229.952 365.5216000000001C162.96 353.2176 112 294.4976000000001 112 224.0016L112 192.0016C112 163.0736 101.008 151.4096 88.288 137.9056C76.912 125.8256 64 112.1456 64 88.0016C64 57.1216 89.12 32.0016 120 32.0016L192 32.0016C192 -3.2944 220.704 -31.9984 256 -31.9984C291.296 -31.9984 320 -3.2944 320 32.0016L392 32.0016C422.88 32.0016 448 57.1216 448 88.0016C448 112.1456 435.088 125.8256 423.712 137.9056" />
    <glyph glyph-name="app-facebook"
      unicode="&#xEA3B;"
      horiz-adv-x="512" d="M361.6 384C408.153563 384 446.107669 347.1813467 447.931395 301.0749631L448 297.6L448 86.4C448 39.846437 411.181347 1.892331 365.0749630000001 0.068605L361.6 0L150.4 0C103.8464367 0 65.89233064 36.818653 64.0686048043 82.925037L64 86.4L64 297.6C64 344.1535633 100.8186533 382.10766936 146.9250369 383.9313951957L150.4 384L361.6 384zM361.6 352L150.4 352C121.357186 352 97.6300346 329.2409425 96.0804943 300.5847757L96 297.6L96 86.4C96 57.357186 118.7590575 33.630035 147.4152243 32.080494L150.4 32L229.408 32L229.408 126.224L218 126.217714C204.528042 126.217714 193.311758 136.386475 192.107084 149.574765L192 151.932L192 200.571429C192 214.09022 202.467842 225.010024 215.64759 226.181611L218 226.285714L229.632 226.288L229.706859 227.63134C232.613259 274.414626 260.037594 300.5676154 309.049915 303.6110760000001L313.303772 303.8152915L358 304C364.772632 304 371.302928 301.3898253 376.208571 296.649613C380.555323 292.4270542 383.260572 286.8379055000001 383.868966 280.865778L384 278.285714L384 230.2C384 225.428662 382.696047 220.981073 380.429132 217.171549L379.2320000000001 215.36L379.534353 214.976703C382.93704 210.000414 384.477196 203.993527 383.86647 198.006768L383.472203 195.445309L373.474037 146.814813C371.157134 135.512881 361.590878 127.299153 350.283136 126.316585L348 126.217714L330.24 126.224L330.24 32L361.6 32C390.642814 32 414.369965 54.759058 415.919506 83.415224L416 86.4L416 297.6C416 326.642814 393.240942 350.3699654 364.584776 351.9195057L361.6 352zM352 271.984L313.919896 271.824881C278.995874 270.623886 263.590737 257.007829 261.661569 226.238986L261.509824 222.994621L261.375082 194.285714L224 194.288L224 158.224L261.41 158.217714L261.408 32L298.24 32L298.25 158.217714L343.136 158.224L350.56 194.288L298.27 194.285714L298.27 213.530286C298.27 224.518726 304.86556 235.157264 317.200208 236.370834L319.5800000000001 236.485714L352 236.496L352 271.984z" />
    <glyph glyph-name="app-skype"
      unicode="&#xEA3C;"
      horiz-adv-x="512" d="M176.912 384L182.187612 383.879332832C197.971462 383.156303531 213.335645 379.1927873800001 227.395065 372.2253944000001L232.032 369.7920000000001L236.71168 370.324352C241.807104 370.8257024 247.256422 371.1160269 253.26935 371.2121027L257.8880000000001 371.248L263.534545 371.1648357000001C308.5147080000001 369.8380871 350.676331 352.6744294 383.359305 322.3779673L387.568 318.352L391.49379 314.3604552C422.344222 282.031876 439.815305 240.285946 441.16363 195.742077L441.248 190.16L441.194729 184.764828C441.023664 176.315708 440.437745 168.718867 439.395701 161.587394L438.528 156.32L440.5089270000001 151.595786C444.862332 140.48935 447.332631 128.808626 447.882184 116.734288L448 111.536L447.934415 107.707286C445.928564 49.240075 398.161457 2.046564 338.979522 0.064797L335.104 0L329.501235 0.138118C316.45116 0.781388 303.594667 3.662661 291.609284 8.593734L286.528 10.832L281.296519 10.028889C274.475481 9.06 268.245852 8.496444 262.299481 8.309778L257.8880000000001 8.24L253.142618 8.299537C155.3681713 10.755451 76.3055397 88.883311 73.82024939 185.472178L73.76 190.16L73.875712 196.0736C74.107648 202.03904 74.689792 208.17152 75.635968 214.57472L76.704 221.072L74.32264 225.868064C67.53808 240.41264 64 256.3232 64 272.48C64 332.687 112.5673194 381.91036111 173.036457 383.9352029803L176.912 384zM176.912 354L173.412965 353.9283335C130.5085545 352.1677122 95.9154274 318.1844139 94.0768686 276.012745L94 272.48L94.1446145 267.659588C94.8288419 256.265891 97.9314497 245.13856 103.2472375 235.035257L105.344 231.296L108.336 226.304L107.168 220.592L106.1199259 215.12C104.5328889 206.155556 103.744 197.946667 103.744 190.16C103.744 107.844138 170.532005 40.610435 253.506261 38.316501L257.8880000000001 38.256L261.457446 38.313283C267.498962 38.505003 274.033773 39.181854 281.52835 40.402146L286.144 41.2L291.264 42.144L295.872 39.712L299.904351 37.705986C309.446167 33.286211 319.885981 30.701147 330.531204 30.12394L335.104 30L338.601836 30.071667C381.491846 31.832298 416.084583 65.815975 417.923132 108.002024L418 111.536L417.865156 116.283562C417.326094 125.720437 415.172656 134.799563 411.438594 143.372438L409.44 147.616L406.992 152.432L408.176 157.68L409.011172 161.748758C410.28744 168.644385 410.9899480000001 176.148758 411.188665 184.815813L411.248 190.16L411.18693 194.454319C408.912066 274.346851 343.366869 338.9457724 262.248266 341.1878114L257.8880000000001 341.248L253.491872 341.2123615C246.659583 341.0977213 240.766627 340.7036455 235.410617 339.9888636L231.488 339.392L225.904 338.448L221.088 341.456L217.059056 343.801776C206.161264 349.7449440000001 194.066416 353.180336 181.601904 353.870384L176.912 354zM259.9840000000001 300.752L265.177125 300.6769688C275.400375 300.3767813 284.638125 299.1754688 292.755375 297.0662812L296.7200000000001 295.9360000000001L301.063697 294.4971662C308.13565 291.9870787 314.363289 288.9183907000001 319.647487 285.3144257L322.704 283.088L325.5681400000001 280.750834C329.971489 276.980469 333.512887 273.062863 336.171699 269.013492L338 265.952L339.346799 263.375207C341.496303 259.083895 343.128023 254.813574 343.612222 250.628385L343.76 248.128L343.6230310000001 246.057563C343.096755 242.078135 341.091334 238.373057 338.258081 235.004358L336.464 233.024L334.801688 231.471031C331.369313 228.582219 327.295688 226.990531 322.675313 226.594719L320.32 226.496L317.9008750000001 226.573248C313.997901 226.83214 310.7433240000001 227.748758 308.195452 229.428058L306.752 230.528L305.26963 231.945481C303.277926 233.999407 301.219852 236.717037 299.029037 240.193185L297.36 242.944L295.629434 246.034192C292.780222 250.820422 289.548397 254.844653 285.975231 258.060454L283.232 260.32L281.5407840000001 261.449696C276.745776 264.276704 269.676464 265.635296 260.488496 265.902304L256.944 265.952L253.266809 265.882272C244.868499 265.554568 237.74997 264.055704 232.061783 261.046914L229.712 259.664L227.616988 258.215923C222.971062 254.780027 220.048 250.938689 219.389827 246.563929L219.248 244.656L219.442944 242.594176C219.822336 240.600064 220.723584 238.804096 221.863296 237.161344L223.072 235.568L224.531072 233.98464C226.095488 232.44096 227.975552 231.01824 230.167808 229.73376L232.464 228.496L236.638222 226.573037C238.506074 225.782123 240.389728 225.077597 242.284971 224.465075L245.136 223.616L251.275688 222.007531L251.275688 222.007531L263.2454380000001 219.133156L263.2454380000001 219.133156L266.896 218.288L274.41984 216.619904C281.81376 214.916096 288.81024 213.106304 295.34016 211.200896L301.712 209.264L306.826667 207.52963C313.488 205.13437 319.509333 202.40963 324.805333 199.37437L328.64 197.04L331.767324 194.858869C336.819452 191.086274 341.066915 186.6302970000001 344.445574 181.543417L346.368 178.416L347.8642500000001 175.519937C350.65725 169.564563 352.25325 162.634937 352.65225 154.825562L352.752 150.848L352.61048 146.59718C351.962754 136.77882 349.094233 127.66918 344.042557 119.41882L341.7440000000001 115.936L339.447904 112.928096C333.052256 105.078624 324.479584 98.607456 313.844576 93.645664L309.76 91.856L305.06085 90.056406C293.860236 86.101224 281.019567 83.854925 266.779742 83.35515L260.592 83.248L255.016315 83.329972C236.68613 83.876361 220.920759 87.153306 208.035019 93.133028L204.256 95.008L200.376188 97.227469C192.790313 101.856281 186.255188 107.617969 180.919313 114.397781L178.352 117.872L176.24011 121.054398C171.5991 128.475281 168.967023 135.856373 168.38152 143.054639L168.256 146.128L168.39095 148.530472C168.840397 152.457936 170.410542 155.9982270000001 173.072233 159.093038L174.8 160.896L176.730402 162.507335C180.067312 165.017889 183.998974 166.636315 188.478741 167.106052L191.232 167.248L193.504233 167.133201C197.066365 166.768681 200.272754 165.549733 203.07697 163.672392L205.104 162.144L206.874444 160.506444C209.174 158.157111 211.228222 155.15 213.022889 151.556222L216.020736 145.064064C217.751424 141.499776 219.570816 138.307584 221.468544 135.497856L223.392 132.816L225.035259 130.850222C227.378963 128.297333 230.329481 126.021778 233.839407 124.080444L236.576 122.688L238.805313 121.768438C243.320677 120.147865 248.884523 119.477943 255.410007 119.299651L259.44 119.248L263.688494 119.32901C273.396543 119.710793 281.66242 121.468071 288.350617 125.150398L291.12 126.848L293.358432 128.47456C299.023968 132.9008 302.254432 138.04384 302.902368 144.06752L303.024 146.368L302.919813 148.622969C302.516219 152.88987 300.9493 156.475152 298.380335 159.47186L296.7200000000001 161.2L294.455556 163.118148C291.287556 165.576519 287.529333 167.635481 283.237778 169.261852L279.92 170.4L274.0685 172.09775L274.0685 172.09775L267.284 173.8540000000001C266.077 174.1515 264.83225 174.451375 263.550313 174.753594L255.416938 176.594781L255.416938 176.594781L251.024 177.536L245.014281 178.867813C233.228969 181.590688 222.857781 184.666813 214.069469 188.055688L209.808 189.776L205.670656 191.655188C197.606094 195.583313 190.807156 200.526187 185.361594 206.416313L182.752 209.44L180.810208 212.031376C175.858912 219.106064 172.748768 227.492496 172.118752 237.116944L172 240.784L172.152406 244.681657C172.859742 253.673306 176.001888 261.937953 181.006705 269.332565L183.264 272.448L185.726332 275.408812C192.613926 283.10637 202.062222 289.2124444 213.824 293.536C225.415111 297.8026667000001 238.97837 300.185679 254.199133 300.6625624L259.9840000000001 300.752z" />
    <glyph glyph-name="app-twitter"
      unicode="&#xEA3D;"
      horiz-adv-x="512" d="M183.2779772299692 384L276.9469892299691 247.776L393.0787682299691 382.74779724L395.8078432299691 384L428.3319632299691 384C431.4106842299691 384 433.0688752299691 380.38615765 431.0610622299692 378.05223098L295.5869892299692 220.608L443.3168382299691 5.638779C444.7758222299691 3.51551 443.5866942299691 0.71161 441.2689002299691 0.114734L440.3497892299692 0L328.7130362299692 0L229.7149892299691 144.016L106.9071250299691 1.252215L104.1780402299691 0L71.6509895599691 0C68.5722123969691 0 66.9140417999691 3.613955 68.9219675139691 5.947858L211.0589892299691 171.168L68.6839103349691 378.36126488C67.2249704649691 380.48453736 68.4141073769691 383.288400094 70.7318853999691 383.885267461L71.6509895599691 384L183.2779772299692 384zM164.2701649299691 352L123.0403895299691 352L346.6668932299691 32L387.9537582299692 32L164.2701649299691 352z" />
    <glyph glyph-name="app-video"
      unicode="&#xEA3E;"
      horiz-adv-x="512" d="M416 352.0064C440.96 352.0064 465.248 333.0304 471.28 308.8064C471.616 307.4144 480 273.0464 480 192.0064C480 110.9504 471.616 76.5824 471.28 75.1584C465.248 50.9504 440.96 32.0064 416 32.0064L96 32.0064C71.04 32.0064 46.752 50.9664 40.72 75.1744C40.352 76.5984 32 110.9664 32 192.0064C32 273.0304 40.352 307.3984000000001 40.72 308.8224C46.752 333.0304 71.04 352.0064 96 352.0064L416 352.0064zM416 320.0064L96 320.0064C85.776 320.0064 74.224 310.9824 71.744 301.0784C71.68 300.7904 64 268.2944 64 192.0064C64 115.7024 71.68 83.2064 71.76 82.8704C74.224 73.0144 85.776 64.0064 96 64.0064L416 64.0064C426.2080000000001 64.0064 437.7440000000001 72.9984 440.2080000000001 82.8864C440.272 83.2064 448 115.7184 448 192.0064C448 268.2784000000001 440.272 300.7904 440.2080000000001 301.1104000000001C437.7440000000001 310.9824 426.2080000000001 320.0064 416 320.0064zM216.2816 283.096L344.2816000000001 205.688C349.0656 202.792 351.9936 197.592 351.9936 192.008C351.9936 186.408 349.0656 181.208 344.2816000000001 178.312L216.2816 100.904C213.7216 99.368 210.8736 98.6 207.9936 98.6C205.2896 98.6 202.5696 99.288 200.1376 100.664C195.0976 103.496 191.9936 108.808 191.9936 114.6L191.9936 269.4C191.9936 275.192 195.0976 280.504 200.1376 283.352C205.1296000000001 286.184 211.3376 286.104 216.2816 283.096zM223.9936 241.032L223.9936 142.968L305.0656 192.008L223.9936 241.032z" />
    <glyph glyph-name="upload-cloud"
      unicode="&#xEA40;"
      horiz-adv-x="512" d="M244.688 251.312C250.944 257.568 261.0560000000001 257.568 267.312 251.312L331.296 187.328C337.552 181.072 337.552 170.96 331.296 164.704C325.04 158.448 314.928 158.448 308.6720000000001 164.704L272 201.376L272 -16C272 -24.848 264.848 -32 256 -32C247.152 -32 240 -24.848 240 -16L240 201.376L203.312 164.688C200.192 161.568 196.096 160 192 160C187.904 160 183.808 161.568 180.688 164.688C174.432 170.944 174.432 181.056 180.688 187.312zM280 416.0016C350.576 416.0016 408 358.5776 408 288.0016C408 286.8496 407.968 285.6976 407.92 284.5776C449.44 273.8256 480 235.9216 480 192.0016C480 139.0576 436.928 96.0016 384 96.0016L336 96.0016C327.152 96.0016 320 103.1536 320 112.0016C320 120.8496 327.152 128.0016 336 128.0016L384 128.0016C419.28 128.0016 448 156.7056 448 192.0016C448 224.9296 422.128 252.7856 389.056 255.4096L371.984 256.7696L374.496 273.6976C375.28 278.9456 376 283.3936 376 288.0016C376 340.9296 332.928 384.0016 280 384.0016C237.36 384.0016 199.52 355.0576 187.968 313.6176000000001L183.984 299.2976L169.392 302.2416C163.76 303.3776000000001 157.968 304.0016 152 304.0016C103.472 304.0016 64 264.5296 64 216.0016C64 167.4736 103.472 128.0016 152 128.0016L176 128.0016C184.848 128.0016 192 120.8496 192 112.0016C192 103.1536 184.848 96.0016 176 96.0016L152 96.0016C85.824 96.0016 32 149.8256 32 216.0016C32 285.3936 92 341.1856 161.68 335.5856C180.944 383.5696 227.76 416.0016 280 416.0016z" />
    <glyph glyph-name="money-in"
      unicode="&#xEA42;"
      horiz-adv-x="512" d="M368 416C376.848 416 384 408.848 384 400L384 304C384 295.152 376.848 288 368 288C359.152 288 352 295.152 352 304L352 384L96 384L96 0L352 0L352 80C352 88.848 359.152 96 368 96C376.848 96 384 88.848 384 80L384 -16C384 -24.848 376.848 -32 368 -32L80 -32C71.152 -32 64 -24.848 64 -16L64 400C64 408.848 71.152 416 80 416zM244.688 267.312C250.944 273.568 261.0560000000001 273.568 267.312 267.312C273.568 261.0560000000001 273.568 250.944 267.312 244.688L230.624 208L432 208C440.848 208 448 200.848 448 192C448 183.152 440.848 176 432 176L230.624 176L267.312 139.312C273.568 133.056 273.568 122.944 267.312 116.688C264.192 113.568 260.096 112 256 112C251.904 112 247.808 113.568 244.688 116.688L180.688 180.688C174.432 186.944 174.432 197.056 180.688 203.312z" />
    <glyph glyph-name="money-out"
      unicode="&#xEA41;"
      horiz-adv-x="512" d="M367.998 416C376.846 416 383.998 408.848 383.998 400L383.998 304C383.998 295.152 376.846 288 367.998 288C359.15 288 351.998 295.152 351.998 304L351.998 384L95.998 384L95.998 0L351.998 0L351.998 80C351.998 88.848 359.15 96 367.998 96C376.846 96 383.998 88.848 383.998 80L383.998 -16C383.998 -24.848 376.846 -32 367.998 -32L79.998 -32C71.15 -32 63.998 -24.848 63.998 -16L63.998 400C63.998 408.848 71.15 416 79.998 416zM367.998 272C372.094 272 376.19 270.432 379.31 267.312L443.31 203.312C449.566 197.056 449.566 186.944 443.31 180.688L379.31 116.688C373.054 110.432 362.942 110.432 356.686 116.688C350.43 122.944 350.43 133.056 356.686 139.312L393.374 176L191.998 176C183.15 176 175.998 183.152 175.998 192C175.998 200.848 183.15 208 191.998 208L393.374 208L356.686 244.688C350.43 250.944 350.43 261.0560000000001 356.686 267.312C359.806 270.432 363.902 272 367.998 272z" />
    <glyph glyph-name="list"
      unicode="&#xEA44;"
      horiz-adv-x="512" d="M464 336L48 336C39.152 336 32 343.152 32 352C32 360.848 39.152 368 48 368L464 368C472.848 368 480 360.848 480 352C480 343.152 472.848 336 464 336M48 16C39.152 16 32 23.152 32 32C32 40.848 39.152 48 48 48L464 48C472.848 48 480 40.848 480 32C480 23.152 472.848 16 464 16L48 16zM464 176L48 176C39.152 176 32 183.152 32 192C32 200.848 39.152 208 48 208L464 208C472.848 208 480 200.848 480 192C480 183.152 472.848 176 464 176" />
    <glyph glyph-name="delete"
      unicode="&#xEA43;"
      horiz-adv-x="512" d="M464.004 352C472.852 352 480.004 344.848 480.004 336L480.004 48C480.004 39.152 472.852 32 464.004 32L176.004 32C171.444 32 167.076 33.952 164.052 37.376L36.052 181.376C30.644 187.44 30.644 196.56 36.052 202.624L164.052 346.624C167.076 350.048 171.444 352 176.004 352L464.004 352zM448.004 320L183.188 320L69.412 192L183.188 64L448.004 64L448.004 320zM395.3128000000001 267.312C401.5688 261.056 401.5688 250.944 395.3128000000001 244.688L342.624 192.001L395.3128000000001 139.312C401.5688 133.0560000000001 401.5688 122.944 395.3128000000001 116.688C392.1928000000001 113.568 388.0968000000001 112 384.0008000000001 112C379.9048 112 375.8088 113.568 372.6888 116.688L320 169.377L267.3128000000001 116.688C264.1928000000001 113.568 260.0968000000001 112 256.0008000000001 112C251.9048 112 247.8088 113.568 244.6888 116.688C238.4328 122.944 238.4328 133.0560000000001 244.6888 139.312L297.376 192.001L244.6888 244.688C238.4328 250.944 238.4328 261.056 244.6888 267.312C250.9448 273.568 261.0568 273.568 267.3128000000001 267.312L320 214.625L372.6888 267.312C378.9448 273.568 389.0568 273.568 395.3128000000001 267.312z" />
    <glyph glyph-name="grid"
      unicode="&#xEA45;"
      horiz-adv-x="512" d="M96 256L192 256L192 352L96 352L96 256zM208 224L80 224C71.152 224 64 231.152 64 240L64 368C64 376.848 71.152 384 80 384L208 384C216.848 384 224 376.848 224 368L224 240C224 231.152 216.848 224 208 224L208 224zM320 256L416 256L416 352L320 352L320 256zM432 224L304 224C295.152 224 288 231.152 288 240L288 368C288 376.848 295.152 384 304 384L432 384C440.848 384 448 376.848 448 368L448 240C448 231.152 440.848 224 432 224L432 224zM96 32L192 32L192 128L96 128L96 32zM208 0L80 0C71.152 0 64 7.152 64 16L64 144C64 152.848 71.152 160 80 160L208 160C216.848 160 224 152.848 224 144L224 16C224 7.152 216.848 0 208 0L208 0zM320 32L416 32L416 128L320 128L320 32zM432 0L304 0C295.152 0 288 7.152 288 16L288 144C288 152.848 295.152 160 304 160L432 160C440.848 160 448 152.848 448 144L448 16C448 7.152 440.848 0 432 0L432 0z" />
    <glyph glyph-name="reach-the-start"
      unicode="&#xEA46;"
      horiz-adv-x="512" d="M357.2999852992293 36.1088L197.2999852992293 180.1088C193.9239852992293 183.1328 192.0039852992293 187.4688 192.0039852992293 191.9968C192.0039852992293 196.5248 193.9239852992293 200.8608 197.2999852992293 203.8848L357.2999852992293 347.8848C360.3559852992293 350.6368 364.1959852992293 351.9968 368.0039852992293 351.9968C372.3719852992293 351.9968 376.7399852992293 350.2208 379.8919852992293 346.7008C385.7959852992293 340.1408 385.2679852992293 330.0128 378.7079852992294 324.1088L231.9239852992293 191.9968L378.7079852992294 59.8848C385.2679852992293 53.9808 385.7959852992293 43.8528 379.8919852992293 37.2928C373.9719852992293 30.7328 363.8599852992293 30.2208 357.2999852992293 36.1088zM144.0039852992293 31.9968C135.1559852992293 31.9968 128.0039852992293 39.1488 128.0039852992293 47.9968L128.0039852992293 335.9968C128.0039852992293 344.8448 135.1559852992293 351.9968 144.0039852992293 351.9968C152.8519852992293 351.9968 160.0039852992293 344.8448 160.0039852992293 335.9968L160.0039852992293 47.9968C160.0039852992293 39.1488 152.8519852992293 31.9968 144.0039852992293 31.9968z" />
    <glyph glyph-name="reach-the-end"
      unicode="&#xEA47;"
      horiz-adv-x="512" d="M154.7000149007708 347.8848L314.7000145007708 203.8848C318.0760145007708 200.8608 319.9960145007707 196.5248 319.9960145007707 191.9968C319.9960145007707 187.4688 318.0760145007708 183.1328 314.7000145007708 180.1088L154.7000149007708 36.1088C151.6440149007708 33.3568 147.8040149007708 31.9968 143.9960149007708 31.9968C139.6280149007708 31.9968 135.2600149007707 33.7728 132.1080149007708 37.2928C126.2040149007708 43.8528 126.7320149007707 53.9808 133.2920149007708 59.8848L280.0760145007708 191.9968L133.2920149007708 324.1088C126.7320149007707 330.0128 126.2040149007708 340.1408 132.1080149007708 346.7008C138.0280149007707 353.2608 148.1400149007708 353.7728 154.7000149007708 347.8848zM367.9960145007707 351.9968C376.8440145007708 351.9968 383.9960145007707 344.8448 383.9960145007707 335.9968L383.9960145007707 47.9968C383.9960145007707 39.1488 376.8440145007708 31.9968 367.9960145007707 31.9968C359.1480145007708 31.9968 351.9960145007707 39.1488 351.9960145007707 47.9968L351.9960145007707 335.9968C351.9960145007707 344.8448 359.1480145007708 351.9968 367.9960145007707 351.9968z" />
    <glyph glyph-name="filter"
      unicode="&#xEA48;"
      horiz-adv-x="512" d="M109.8879998011154 351.9984L221.3120002011154 184.8784C223.0560002011154 182.2544 224.0000002011154 179.1504 224.0000002011154 175.9984L224.0000002011154 45.8864L288.0000002011153 88.5584L288.0000002011153 175.9984C288.0000002011153 179.1504 288.9440002011154 182.2544 290.6880002011154 184.8784L402.1120002011154 351.9984L109.8879998011154 351.9984zM208.0000002011154 -0.0016C205.4080002011154 -0.0016 202.8160002011154 0.6224 200.4480002011154 1.8864C195.2480002011154 4.6704 192.0000002011154 10.0944 192.0000002011154 15.9984L192.0000002011154 171.1504L66.6879998011154 359.1184C63.4239997981154 364.0304 63.1039997981154 370.3344 65.8879998011154 375.5504C68.6719998011154 380.7504 74.0959998011154 383.9984 79.9999998011154 383.9984L432.0000002011155 383.9984C437.9040002011154 383.9984 443.3280002011154 380.7504 446.1120002011154 375.5504C448.8960002011154 370.3344 448.5760002011154 364.0304 445.3120002011153 359.1184L320.0000002011153 171.1504L320.0000002011153 79.9984C320.0000002011153 74.6544 317.3280002011154 69.6624 312.8800002011153 66.6864L216.8800002011153 2.6864C214.2080002011154 0.9104 211.1040002011154 -0.0016 208.0000002011154 -0.0016L208.0000002011154 -0.0016z" />
    <glyph glyph-name="plus"
      unicode="&#xEA4B;"
      horiz-adv-x="512" d="M432 208L272 208L272 368C272 376.848 264.848 384 256 384C247.152 384 240 376.848 240 368L240 208L80 208C71.152 208 64 200.848 64 192C64 183.152 71.152 176 80 176L240 176L240 16C240 7.152 247.152 0 256 0C264.848 0 272 7.152 272 16L272 176L432 176C440.848 176 448 183.152 448 192C448 200.848 440.848 208 432 208" />
    <glyph glyph-name="bulle"
      unicode="&#xEA49;"
      horiz-adv-x="512" d="M143.984326 32.72C147.008326 32.72 150.016326 31.872 152.624326 30.192C183.440326 10.432 219.184326 0 256.000326 0C361.872326 0 448.000326 86.128 448.000326 192C448.000326 297.872 361.872326 384 256.000326 384C150.128326 384 64.0003264 297.872 64.0003264 192C64.0003264 155.824 74.1123264 120.576 93.2323264 90.096C95.7603264 86.08 96.3683264 81.152 94.9123264 76.656L73.0883264 9.472L138.832326 31.872C140.496326 32.432 142.256326 32.72 143.984326 32.72M48.0003264 -32C43.8563264 -32 39.80832636 -30.4 36.76832636 -27.408C32.448326359 -23.152 30.91232636 -16.816 32.784326359 -11.056L62.2243264 79.584C42.4163264 113.648 31.999674 152.352 31.999674 192C31.999674 315.52 132.480326 416 256.000326 416C379.520326 416 480.000326 315.52 480.000326 192C480.000326 68.48 379.520326 -32 256.000326 -32C215.664326 -32 176.432326 -21.248 142.016326 -0.848L53.1523264 -31.152C51.4723264 -31.712 49.7283264 -32 48.0003264 -32" />
    <glyph glyph-name="moins"
      unicode="&#xEA4C;"
      horiz-adv-x="512" d="M432 176L80 176C71.152 176 64 183.152 64 192C64 200.848 71.152 208 80 208L432 208C440.848 208 448 200.848 448 192C448 183.152 440.848 176 432 176" />
    </font>
</defs>
</svg>
